Скачать Фантазия / Fantasia (1940) BDRip HEVC 1080p | P1 бесплатно без регистрации






Аудио кодек: AC3
Навигация по главам: Присутствует

Аудио: Rus, 48 kHz/16-bit, AC3 5.1, ~640 kbps | Кубик в Кубе
Формат: MKV
Качество: BDRip 1080p
Автор рипа: Alex_A



Субтитры: Russian, English

Alex_A ОценкаНикто ещё не поставил оценку КатегорияМультипликация Раздают3 Качают0 Сидер замечен14-06-2019 20:19:13 (4 минуты назад) Добавлен04-01-2017 18:31:12 (30 месяцев назад) Размер5.48 GB (5887181882 Bytes)Перевод: Профессиональный одноголосый (Кубик в Кубе)
Название: Фантазия
Видео кодек: x265
Видео: 1440x1080, 23,976 fps, HEVC, ~5024 kbps, 10bit
- H.265/HEVC (High Efficiency Video Coding) - это новый стандарт кодирования видео.
- Стандарт H.265/HEVC является логическим продолжением стандарта H.264/AVC (Advanced Video Coding), и характеризуется более эффективными алгоритмами сжатия, а также поддержкой высокого разрешения вплоть до 8K UHD (8192x4320). Первая версия стандарта H.265 была опубликована в начале 2013 года.
- Рипы в фомате HEVC, в настоящее время не поддерживается большинством аппаратных проигрывателей.
- Для корректного воспроизведения может потребоваться обновление ПО.
- Владельцам несовместимого железа просьба не беспокоить, есть альтернативные релизы.

МедиаинфоОбщее
Уникальный идентификатор : 192327408872704135406718157038011801896 (0x90B0E95DCB4C043D82A9EC56469BE128)
Полное имя : F:HEVCFantasia (1940)Fantasia.1940.1080p_HEVCCLUB.mkv
Формат : Matroska
Версия формата : Version 4 / Version 2
Размер файла : 5,48 Гбайт
Продолжительность : 2 ч. 4 м.
Общий поток : 6307 Кбит/сек
Название фильма : Fantasia (1940) - HEVC.CLUB
Дата кодирования : UTC 2017-01-02 14:00:48
Программа кодирования : mkvmerge v9.5.0 ('Quiet Fire') 64bit
Библиотека кодирования : libebml v1.3.4 + libmatroska v1.4.5
Обложка : Yes
Attachments : cover.jpg

Видео
Идентификатор : 1
Формат : HEVC
Формат/Информация : High Efficiency Video Coding
Профиль формата : Main 10@L4.1@High
Идентификатор кодека : V_MPEGH/ISO/HEVC
Продолжительность : 2 ч. 4 м.
Битрейт : 5024 Кбит/сек
Ширина : 1440 пикселей
Высота : 1080 пикселей
Соотношение сторон : 4:3
Режим частоты кадров : Постоянный
Частота кадров : 23,976 (24000/1001) кадра/сек
Цветовое пространство : YUV
Субдискретизация насыщенности : 4:2:0
Битовая глубина : 10 бит
Бит/(Пиксели*Кадры) : 0.135
Размер потока : 4,37 Гбайт (80%)
Заголовок : HEVC.CLUB
Библиотека кодирования : x265 2.1+74-e5759d587ae2:[Windows][GCC 6.2.0][64 bit] 10bit
Настройки программы : cpuid=1173503 / frame-threads=3 / numa-pools=8 / wpp / no-pmode / no-pme / no-psnr / ssim / log-level=2 / input-csp=1 / input-res=1440x1080 / interlace=0 / total-frames=0 / level-idc=41 / high-tier=1 / uhd-bd=0 / ref=6 / no-allow-non-conformance / repeat-headers / annexb / aud / hrd / info / hash=0 / no-temporal-layers / open-gop / min-keyint=23 / keyint=250 / bframes=8 / b-adapt=2 / b-pyramid / bframe-bias=0 / rc-lookahead=60 / lookahead-slices=1 / scenecut=40 / no-intra-refresh / ctu=32 / min-cu-size=8 / no-rect / no-amp / max-tu-size=32 / tu-inter-depth=2 / tu-intra-depth=2 / limit-tu=0 / rdoq-level=1 / signhide / no-tskip / nr-intra=0 / nr-inter=0 / no-constrained-intra / no-strong-intra-smoothing / max-merge=2 / limit-refs=3 / no-limit-modes / me=2 / subme=5 / merange=60 / temporal-mvp / weightp / weightb / no-analyze-src-pics / deblock=-3:-3 / no-sao / no-sao-non-deblock / rd=4 / no-early-skip / no-rskip / no-fast-intra / no-tskip-fast / no-cu-lossless / no-b-intra / rdpenalty=0 / psy-rd=2.00 / psy-rdoq=3.00 / no-rd-refine / analysis-mode=0 / no-lossless / cbqpoffs=0 / crqpoffs=0 / rc=crf / crf=22.0 / qcomp=0.80 / qpstep=6 / stats-write=0 / stats-read=0 / vbv-maxrate=50000 / vbv-bufsize=50000 / vbv-init=0.9 / crf-max=0.0 / crf-min=0.0 / ipratio=1.50 / pbratio=1.10 / aq-mode=1 / aq-strength=0.50 / no-cutree / zone-count=0 / no-strict-cbr / qg-size=32 / no-rc-grain / qpmax=69 / qpmin=0 / sar=1 / overscan=0 / videoformat=5 / range=0 / colorprim=2 / transfer=2 / colormatrix=1 / chromaloc=0 / display-window=0 / max-cll=0,0 / min-luma=0 / max-luma=1023 / log2-max-poc-lsb=8 / vui-timing-info / vui-hrd-info / slices=1 / opt-qp-pps / opt-ref-list-length-pps / no-multi-pass-opt-rps / scenecut-bias=0.05
Default : Да
Forced : Да
Цветовой диапазон : Limited
Коэффициенты матрицы : BT.709

Аудио #1
Идентификатор : 2
Формат : AC-3
Формат/Информация : Audio Coding 3
Расширение режима : CM (complete main)
Параметр Endianness формата : Big
Идентификатор кодека : A_AC3
Продолжительность : 2 ч. 4 м.
Вид битрейта : Постоянный
Битрейт : 640 Кбит/сек
Каналы : 6 каналов
Расположение каналов : Front: L C R, Side: L R, LFE
Частота : 48,0 КГц
Частота кадров : 31,250 кадров/сек (1536 spf)
Метод сжатия : С потерями
Размер потока : 570 Мбайт (10%)
Заголовок : KVK
Язык : Russian
Default : Да
Forced : Нет

Аудио #2
Идентификатор : 3
Формат : AC-3
Формат/Информация : Audio Coding 3
Расширение режима : CM (complete main)
Параметр Endianness формата : Big
Идентификатор кодека : A_AC3
Продолжительность : 2 ч. 4 м.
Вид битрейта : Постоянный
Битрейт : 640 Кбит/сек
Каналы : 6 каналов
Расположение каналов : Front: L C R, Side: L R, LFE
Частота : 48,0 КГц
Частота кадров : 31,250 кадров/сек (1536 spf)
Метод сжатия : С потерями
Размер потока : 570 Мбайт (10%)
Заголовок : Original
Язык : English
Default : Нет
Forced : Нет

Текст #1
Идентификатор : 4
Формат : UTF-8
Идентификатор кодека : S_TEXT/UTF8
Идентификатор кодека/Информация : UTF-8 Plain Text
Продолжительность : 2 ч. 2 м.
Битрейт : 18 бит/сек
Count of elements : 217
Размер потока : 17,0 Кбайт (0%)
Заголовок : voronine
Язык : Russian
Default : Нет
Forced : Нет

Текст #2
Идентификатор : 5
Формат : UTF-8
Идентификатор кодека : S_TEXT/UTF8
Идентификатор кодека/Информация : UTF-8 Plain Text
Продолжительность : 1 ч. 48 м.
Битрейт : 12 бит/сек
Count of elements : 212
Размер потока : 9,84 Кбайт (0%)
Язык : English
Default : Нет
Forced : Нет

Меню
00:00:00.000 : en:Opening/Narrator's Introduction
00:03:59.114 : en:"Toccata And Fugue In D Minor"- Johann Sebastian Bach
00:13:39.819 : en:Narrator's Introduction
00:14:20.860 : en:"The Nutcracker Suite"- Pyotr Ilyich Tchaikovsky
00:28:48.143 : en:Narrator's Introduction
00:29:49.997 : en:"The Sorcerer's Apprentice"- Paul Dukas
00:39:36.374 : en:Narrator's Introduction
00:42:42.560 : en:"The Rite Of Spring"- Igor Stravinsky
01:05:23.920 : en:Intermission
01:08:45.538 : en:Meet The Soundtrack
01:12:12.537 : en:Narrator's Introduction
01:13:52.845 : en:"The Pastoral Symphony"-Ludwig Van Beethoven
01:36:10.765 : en:Narrator's Introduction
01:37:01.816 : en:"Dance Of The Hours"- Amilcare Ponchielli
01:49:20.971 : en:Narrator's Introduction
01:50:27.621 : en:"Night On Bald Mountain"- Modeste Moussorgsky
01:58:25.098 : en:"Ave Maria"- Franz Schubert


Скриншоты
ЗалилПродолжительность: 2:04:28
Оригинальное название: Fantasia

В ролях: Леопольд Стоковски, Димс Тейлор, Кори Бертон, Уолт Дисней, Джеймс МакДональд, Пол Дж. Смит
Описание: Необычайный, поражающий воображение мультконцерт, небывалое ранее единение музыки и мультипликации. Дисней и знаменитый дирижер Леопольд Стоковски решили воспроизвести на экране фантазии, возникающие в сознании людей при прослушивании музыкальных шедевров.
Картина состоит из 8 классических композиций, проиллюстрированных сюжетными инсценировками и ритмичными абстракциями, предвосхищающими чудеса компьютерной графики.

Жанр: мультфильм, фэнтези, семейный, музыка
Аудио: Eng, 48 kHz/16-bit, AC3 5.1, ~640 kbps | Оригинал
Страна: США




Внимание!Режиссёр: Сэмюель Армстронг, Джеймс Элгар

Год выпуска: 1940

Если у вас возникли проблемы с закачкой Фантазия / Fantasia (1940) BDRip HEVC 1080p | P1, перейдите по ссылке - там вы найдете решение своей проблемы.

Категория: Мультипликация

 

Скачать Фантазия / Fantasia (1940) BDRip HEVC 1080p | P1 бесплатно без регистрации

 

Информация
Посетители, находящиеся в группе Гости, не могут оставлять комментарии к данной публикации.
 
 
Скачать Фантазия / Fantasia (1940) BDRip HEVC 1080p | P1 бесплатно без регистрацииCopyright © 2019 .