Скачать Гитлер капут! (2008) BDRip 720p от FreeHD бесплатно без регистрации








Информация о фильме
Качество: BDRip
Режиссер: Марюс Вайсберг
Перевод: Оригинал

Год выхода: 2008
Жанр: комедия, военный
Официальный сайт

Название: Гитлер капут!
В ролях: Павел Деревянко, Анна Семенович, Эвелина Бледанс, Юрий Стоянов, Юрий Гальцев, Анфиса Чехова, Михаил Галустян, Алексей Булдаков, Ксения Собчак

RollHD Оценка10 из 10 (1 голосов, самая низкая оценка - 10, самая высокая - 10) КатегорияНаши фильмы Раздают2 Качают0 Сидер замечен14-06-2019 19:19:13 (4 минуты назад) Добавлен25-03-2009 20:57:31 (124 месяца назад) Размер4.35 GB (4675846328 Bytes)Звук: DTS at 1536 Кбит/сек 6 канала(ов), 48.0 КГц
Продолжительность: 1ч 38мин 39с
О фильме: Русский супер-агент — строго засекреченный шпион Шура Осечкин, он же штандартенфюрер СС Олаф Шуренберг, самоотверженно и нахально ведет подрывную деятельность в ставке Гитлера. Войне скоро конец, и это уже понятно всем, кроме фанатичного фюрера и подозрительного Мюллера. Простые труженики Рейха давно махнули на все рукой, пустились в отрыв и бесшабашно тусуются по клубам. Шуренберг скучает по дому и выращивает помидоры в тайной теплице возле своего дома на 007-Штрассе.

Очередное задание Центра сваливается на него прямо с неба — вместе с новой помощницей, очаровательной и сексапильной радисткой Зиной, мечтой каждого мужчины. С такой боевой подругой недолго и про войну забыть! Но долг превыше всего: прежде чем вернуться на Родину и зажить счастливо вместе, супер-агентам Шуренбергу и Зине предстоит провернуть одну, последнюю и очень важную операцию.




Рип от:ELEKT[r0]






MIОбщее
Уникальный идентификатор : 200203630527941855025151283264680026671 (0x969DD1134F12F99BAF26E57BA9DAE22F)
Полное имя : Gitler.Kaput.2008.720p..mkv
Формат : Matroska
Версия формата : Version 1
Размер файла : 4,35 Гбайт
Продолжительность : 1 ч. 38 м.
Общий поток : 6319 Кбит/сек
Название фильма : Gitler kaput (2008)
Дата кодирования : UTC 2009-03-23 21:58:14
Программа кодирования : mkvmerge v2.5.3 ('Boogie') built on Mar 7 2009 15:00:41
Библиотека кодирования : libebml v0.7.7 + libmatroska v0.8.1

Видео
Идентификатор : 1
Формат : AVC
Формат/Информация : Advanced Video Codec
Профиль формата : High@L4.1
Параметр CABAC формата : Да
Параметр ReFrames формата : 8 кадров
Идентификатор кодека : V_MPEG4/ISO/AVC
Продолжительность : 1 ч. 38 м.
Битрейт : 4807 Кбит/сек
Ширина : 1280 пикселей
Высота : 720 пикселей
Соотношение сторон : 16:9
Режим частоты кадров : Постоянный
Частота кадров : 23,976 кадра/сек
Цветовое пространство : YUV
Субдискретизация насыщенности : 4:2:0
Битовая глубина : 8 бит
Тип развёртки : Прогрессивная
Бит/(Пиксели*Кадры) : 0.218
Размер потока : 3,23 Гбайт (74%)
Библиотека кодирования : x264 core 67 r1128M 682b54d
Настройки программы : cabac=1 / ref=8 / deblock=1:-3:-3 / analyse=0x3:0x113 / me=umh / subme=9 / psy_rd=1.0:0.0 / mixed_ref=1 / me_range=32 / chroma_me=1 / trellis=2 / 8x8dct=1 / cqm=0 / deadzone=21,11 / chroma_qp_offset=-2 / threads=3 / nr=0 / decimate=0 / mbaff=0 / bframes=3 / b_pyramid=1 / b_adapt=2 / b_bias=0 / direct=3 / wpredb=1 / keyint=250 / keyint_min=25 / scenecut=40 / rc=2pass / bitrate=4807 / ratetol=1.0 / qcomp=0.60 / qpmin=10 / qpmax=51 / qpstep=4 / cplxblur=20.0 / qblur=0.5 / ip_ratio=1.40 / pb_ratio=1.30 / aq=1:0.90
Язык : English
Default : Да
Forced : Нет

Аудио
Идентификатор : 2
Формат : DTS
Формат/Информация : Digital Theater Systems
Режим : 16
Параметр Endianness формата : Big
Идентификатор кодека : A_DTS
Продолжительность : 1 ч. 38 м.
Вид битрейта : Постоянный
Битрейт : 1509 Кбит/сек
Каналы : 6 каналов
Расположение каналов : Front: L C R, Side: L R, LFE
Частота : 48,0 КГц
Битовая глубина : 24 бит
Метод сжатия : С потерями
Размер потока : 1,04 Гбайт (24%)
Заголовок : DTS 5.1 @ 1536 kbps
Язык : Russian
Default : Да
Forced : Нет ЗалилВидео: AVC at 4523 Кбит/сек 1280 x 720 (1.778) at 23.976 fps
Формат: Matroska
Выпущено: Россия

Если у вас возникли проблемы с закачкой Гитлер капут! (2008) BDRip 720p от FreeHD, перейдите по ссылке - там вы найдете решение своей проблемы.

Категория: Наши фильмы

 

Скачать Гитлер капут! (2008) BDRip 720p от FreeHD бесплатно без регистрации

 

Информация
Посетители, находящиеся в группе Гости, не могут оставлять комментарии к данной публикации.
 
 
Скачать Гитлер капут! (2008) BDRip 720p от FreeHD бесплатно без регистрацииCopyright © 2019 .