Скачать Космический охотник: Приключения в запретной зоне / Spacehunter: Adventures in the Forbidden Zone (1983) BDRip 720p | P, A бесплатно без регистрации






Информация о фильме
Аудио#4: English: 48 kHz, AC3 Dolby Digital, 2/0 (L,R) ch, ~192 kbps avg
Название: Космический охотник: Приключения в запретной зоне
В ролях: Питер Штраусс, Молли Рингуолд, Эрни Хадсон, Андреа Марковиччи, Майкл Айронсайд, Бисон Кэрролл, Хрант Альянак, Дебора Прэтт, Алейса Ширли, Кали Тимминс

Жанр: фантастика, приключения
Страна: Канада, США
Режиссер: Лэмонт Джонсон
MrRavage Оценка8.6 из 10 (10 голосов, самая низкая оценка - 5, самая высокая - 10) КатегорияЗарубежные фильмы Раздают4 Качают1 Сидер замечен14-06-2019 18:19:12 (4 минуты назад) Добавлен03-11-2018 19:57:46 (7 месяцев назад) Размер4.54 GB (4877917292 Bytes)Аудио#1: Russian: 48 kHz, AC3 Dolby Digital, 2/0 (L,R) ch, ~192 kbps avg |Многоголосый закадровый, ТВ-3|
О фильме: Отдаленное будущее. Пассажирский космолайнер терпит крушение. Погибают все, кроме трех девушек, которые за минуту до взрыва успевают покинуть обреченный корабль на спасательном челноке. Следуя заложенной в него программе, челнок самостоятельно подыскивает планету для высадки. Этой планетой становится Терра-11, атмосфера которой схожа с земной. Из сводки новостей космический охотник Вулф узнает о крушении корабля и о высадке выживших пассажирок.

В результате анализа запрошенной информации оказывается, что в течение долгих лет её население было охвачено чумой. Медицинская экспедиция, отправленная на планету, не смогла справиться с разбушевавшейся болезнью и Терре-11 был присвоен статус запретной зоны. Вулф сомневается, стоит ли рисковать головой и лететь на зачумленную планету, но за спасение девушек назначено огромное вознаграждение…



Перевод: Профессиональный (многоголосый, закадровый) ТВ-3 + Профессиональный (многоголосый, закадровый) + Авторский (одноголосый, закадровый) Ю.Живов

Субтитры: Russian (Eazin)

***Сохранены и подписаны оригинальные главы как на Blu-ray.
***Релиз: msltel.

Знаете ли вы, что...Наземная техника, используемая в фильме, была взята напрокат у создателей картины «Brainstorm» (1983), снимавшегося в то же самое время.
Съемки фильма заняли около трех месяцев — с 10 ноября 1982 по 29 января 1983 года — и проводились в пустыне штата Юта, а также в Ванкувере.
Лента снималась для кинотеатров со специальными стереоэкранами, так называемый «3-D effects» — повальным увлечением начала 80-х годов.MediaInfoОбщее
Уникальный идентификатор : 252028306309386185625937270563378005025 (0xBD9AE2DDB46427948D352DDF63578421)
Полное имя : Космический охотник.1983.BDRip.720p by msltel.mkv
Формат : Matroska
Версия формата : Version 4 / Version 2
Размер файла : 4,54 Гбайт
Продолжительность : 1 ч. 29 м.
Общий поток : 7237 Кбит/сек
Название фильма : Rip by msltel
Дата кодирования : UTC 2017-05-17 02:53:47
Программа кодирования : mkvmerge v8.2.0 ('World of Adventure') 64bit
Библиотека кодирования : libebml v1.3.1 + libmatroska v1.4.2

Видео
Идентификатор : 1
Формат : AVC
Формат/Информация : Advanced Video Codec
Профиль формата : High@L4.1
Параметр CABAC формата : Да
Параметр ReFrames формата : 9 кадров
Идентификатор кодека : V_MPEG4/ISO/AVC
Продолжительность : 1 ч. 29 м.
Битрейт : 6325 Кбит/сек
Ширина : 1280 пикселей
Высота : 720 пикселей
Соотношение сторон : 16:9
Режим частоты кадров : Постоянный
Частота кадров : 23,976 кадра/сек
Цветовое пространство : YUV
Субдискретизация насыщенности : 4:2:0
Битовая глубина : 8 бит
Тип развёртки : Прогрессивная
Бит/(Пиксели*Кадры) : 0.286
Размер потока : 3,97 Гбайт (87%)
Библиотека кодирования : x264 core 146 r2538 121396c
Настройки программы : cabac=1 / ref=9 / deblock=1:-3:-2 / analyse=0x3:0x113 / me=umh / subme=11 / psy=1 / psy_rd=1.00:0.15 / mixed_ref=1 / me_range=32 / chroma_me=1 / trellis=2 / 8x8dct=1 / cqm=0 / deadzone=21,11 / fast_pskip=0 / chroma_qp_offset=-3 / threads=6 / lookahead_threads=1 / sliced_threads=0 / nr=0 / decimate=1 / interlaced=0 / bluray_compat=0 / constrained_intra=0 / bframes=11 / b_pyramid=2 / b_adapt=2 / b_bias=0 / direct=1 / weightb=1 / open_gop=0 / weightp=2 / keyint=230 / keyint_min=23 / scenecut=40 / intra_refresh=0 / rc_lookahead=40 / rc=crf / mbtree=0 / crf=20.0 / qcomp=0.60 / qpmin=0 / qpmax=69 / qpstep=4 / vbv_maxrate=62500 / vbv_bufsize=78125 / crf_max=0.0 / nal_hrd=none / filler=0 / ip_ratio=1.40 / pb_ratio=1.30 / aq=1:1.00
Язык : English
Default : Да
Forced : Нет

Аудио #1
Идентификатор : 2
Формат : AC-3
Формат/Информация : Audio Coding 3
Расширение режима : CM (complete main)
Параметр Endianness формата : Big
Идентификатор кодека : A_AC3
Продолжительность : 1 ч. 29 м.
Вид битрейта : Постоянный
Битрейт : 192 Кбит/сек
Каналы : 2 канала
Расположение каналов : Front: L R
Частота : 48,0 КГц
Битовая глубина : 16 бит
Метод сжатия : С потерями
Размер потока : 123 Мбайт (3%)
Заголовок : MVO (TB3)
Язык : Russian
Default : Да
Forced : Нет

Аудио #2
Идентификатор : 3
Формат : AC-3
Формат/Информация : Audio Coding 3
Расширение режима : CM (complete main)
Параметр Endianness формата : Big
Идентификатор кодека : A_AC3
Продолжительность : 1 ч. 29 м.
Вид битрейта : Постоянный
Битрейт : 192 Кбит/сек
Каналы : 2 канала
Расположение каналов : Front: L R
Частота : 48,0 КГц
Битовая глубина : 16 бит
Метод сжатия : С потерями
Размер потока : 123 Мбайт (3%)
Заголовок : MVO
Язык : Russian
Default : Нет
Forced : Нет

Аудио #3
Идентификатор : 4
Формат : AC-3
Формат/Информация : Audio Coding 3
Расширение режима : CM (complete main)
Параметр Endianness формата : Big
Идентификатор кодека : A_AC3
Продолжительность : 1 ч. 29 м.
Вид битрейта : Постоянный
Битрейт : 192 Кбит/сек
Каналы : 2 канала
Расположение каналов : Front: L R
Частота : 48,0 КГц
Битовая глубина : 16 бит
Метод сжатия : С потерями
Размер потока : 123 Мбайт (3%)
Заголовок : AVO (Юрий Живов)
Язык : Russian
Default : Нет
Forced : Нет

Аудио #4
Идентификатор : 5
Формат : AC-3
Формат/Информация : Audio Coding 3
Расширение режима : CM (complete main)
Параметр Endianness формата : Big
Идентификатор кодека : A_AC3
Продолжительность : 1 ч. 29 м.
Вид битрейта : Постоянный
Битрейт : 192 Кбит/сек
Каналы : 2 канала
Расположение каналов : Front: L R
Частота : 48,0 КГц
Битовая глубина : 16 бит
Метод сжатия : С потерями
Размер потока : 123 Мбайт (3%)
Заголовок : original
Язык : English
Default : Нет
Forced : Нет

Текст
Идентификатор : 6
Формат : UTF-8
Идентификатор кодека : S_TEXT/UTF8
Идентификатор кодека/Информация : UTF-8 Plain Text
Заголовок : русские (Eazin)
Язык : Russian
Default : Нет
Forced : Нет

Меню
00:00:00.000 : en:Start
00:04:15.100 : en:Natives Are Restless
00:06:01.267 : en:Wolff & Chalmers
00:10:04.801 : en:Terra 11 Rescue Mission
00:12:50.335 : en:Visitors
00:18:38.702 : en:Grandman Patterson
00:20:20.603 : en:Best Model Ever
00:21:32.903 : en:Serum Depot
00:23:55.170 : en:Niki the Twister
00:27:14.570 : en:The Chemist
00:28:12.004 : en:"I Don't Eat No Dogs!"
00:30:32.838 : en:New Friends
00:31:48.405 : en:Niki Comes Clean
00:34:32.039 : en:Sector Chief Washington
00:43:59.740 : en:Mutants!
00:46:58.207 : en:Overdog
00:48:38.741 : en:Wet & Wild
00:55:33.275 : en:The Deal
01:01:17.842 : en:"Children... Aren't They?"
01:04:03.842 : en:The Graveyard
01:06:06.443 : en:"Let the Games Begin!"
01:10:30.277 : en:Hitting the Slave Pens
01:11:49.511 : en:Consolation Prize
01:14:11.045 : en:The Maze
01:17:50.612 : en:The Fusion Tube
01:19:32.612 : en:Wolff vs. Overdog
01:22:40.112 : en:Graveyard Destroyed
01:23:27.412 : en:Trust WordsСкриншоты
ЗалилКачество: BDRip 720p
Студия: Columbia Pictures Corporation, Delphi I Productions, Zone Productions
Оригинальное название: Spacehunter: Adventures in the Forbidden Zone
Видео: 1278x720 at 23.976 fps, x264@L4.1, ~6325 kbps avg
Формат: Matroska
Аудио#3: Russian: 48 kHz, AC3 Dolby Digital, 2/0 (L,R) ch, ~192 kbps avg |Авторский, Ю.Живов|
Продолжительность: 01:29:52
Аудио#2: Russian: 48 kHz, AC3 Dolby Digital, 2/0 (L,R) ch, ~192 kbps avg |Многоголосый закадровый|
Год выхода: 1983

Если у вас возникли проблемы с закачкой Космический охотник: Приключения в запретной зоне / Spacehunter: Adventures in the Forbidden Zone (1983) BDRip 720p | P, A, перейдите по ссылке - там вы найдете решение своей проблемы.

Категория: Зарубежные фильмы

 

Скачать Космический охотник: Приключения в запретной зоне / Spacehunter: Adventures in the Forbidden Zone (1983) BDRip 720p | P, A бесплатно без регистрации

 

Информация
Посетители, находящиеся в группе Гости, не могут оставлять комментарии к данной публикации.
 
 
Скачать Космический охотник: Приключения в запретной зоне / Spacehunter: Adventures in the Forbidden Zone (1983) BDRip 720p | P, A бесплатно без регистрацииCopyright © 2019 .