Скачать Робинзон Крузо / Robinson Crusoe (1997) DVDRip от New-Team бесплатно без регистрации





Контейнер: AVI

Производство: Miramax Films, RHI Entertainment Inc.

Оригинальная аудиодорожка: нет
Раздача от:
MediaInfo
Общее
Полное имя : Robinzon.Kruzo.1997.DVDRip-745_[New-team]_by_AVP_Studio.avi
Формат : AVI
Формат/Информация : Audio Video Interleave
Размер файла : 745 Мбайт
Продолжительность : 1 ч. 27 м.
Общий поток : 1196 Кбит/сек
Программа кодирования : VirtualDubModRus 1.5.10.2 (build 2542/release)
Библиотека кодирования : VirtualDubMod build 2542/release

Видео
Идентификатор : 0
Формат : MPEG-4 Visual
Профиль формата : Advanced Simple@L5
Параметр BVOP формата : 1
Параметр QPel формата : Нет
Параметр GMC формата : Без точки перехода
Параметр матрицы формата : Выборочная
Идентификатор кодека : XVID
Идентификатор кодека/Подсказка : XviD
Продолжительность : 1 ч. 27 м.
Битрейт : 1059 Кбит/сек
Ширина : 704 пикселя
Высота : 384 пикселя
Соотношение сторон : 1,85:1
Частота кадров : 25,000 кадров/сек
Цветовое пространство : YUV
Субдискретизация насыщенности : 4:2:0
Битовая глубина : 8 бит
Тип развёртки : Прогрессивная
Метод сжатия : С потерями
Бит/(Пиксели*Кадры) : 0.157
Размер потока : 659 Мбайт (88%)
Библиотека кодирования : XviD 73

Аудио
Идентификатор : 1
Формат : MPEG Audio
Версия формата : Version 1
Профиль формата : Layer 3
Идентификатор кодека : 55
Идентификатор кодека/Подсказка : MP3
Продолжительность : 1 ч. 27 м.
Вид битрейта : Постоянный
Битрейт : 128 Кбит/сек
Каналы : 2 канала
Частота : 48,0 КГц
Метод сжатия : С потерями
Размер потока : 79,7 Мбайт (11%)
Выравнивание : Соединение по промежуткам
Продолжительность промежутка : 40 мс. (1,00 видеокадр)
Время предзагрузки промежутка : 504 мс.
Библиотека кодирования : LAME3.99r
Настройки программы : -m s -V 4 -q 2 -lowpass 17 -b 128

Скриншоты

ЗалилПродолжительность: 01:27:01

Жанр: драма, приключения
Видео: 704x384 (1,85:1), 25 fps, XviD ~ 1059 kbps avg, 0.157 bit/pixel
Год выпуска: 1997
DVD5 R5
Режиссер: Род Харди / Rod Hardy, Джордж Миллер / George Miller

Описание:
По роману «Жизнь и приключения Робинзона Крузо» Дэниэля Дефо. Открывается фильм сценой дуэли на шпагах, из-за которой Робинзону Крузо и пришлось стать моряком и отправиться на встречу со своей судьбой…



В ролях:
Пирс Броснан, Уильям Такаку, Полли Уолкер, Йен Харт, Джеймс Фрейн, Дамиан Льюис, Бен Робертсон, Тим МакМулиан, Мартин Грэйс, Шон Броснан...

DVDRip
Аудио: 48 kHz, MP3 2.0, 128 kbps

AVPStudio ОценкаНикто ещё не поставил оценку КатегорияЗарубежные фильмы Раздают0 Качают0 Сидер замечен10-06-2019 17:19:12 (4 дня назад) Добавлен12-06-2014 15:19:41 (61 месяц назад) Размер744.70 MB (780877824 Bytes)Перевод: Профессиональный (многоголосый, закадровый)
Исходник:Страна: США
Тип релиза:Cубтитры: нет

Если у вас возникли проблемы с закачкой Робинзон Крузо / Robinson Crusoe (1997) DVDRip от New-Team, перейдите по ссылке - там вы найдете решение своей проблемы.

Категория: Зарубежные фильмы

 

Скачать Робинзон Крузо / Robinson Crusoe (1997) DVDRip от New-Team бесплатно без регистрации

 

Информация
Посетители, находящиеся в группе Гости, не могут оставлять комментарии к данной публикации.
 
 
Скачать Робинзон Крузо / Robinson Crusoe (1997) DVDRip от New-Team бесплатно без регистрацииCopyright © 2019 .