Скачать Забрасывая камнями / Побивание камнями Сорайи М. / The Stoning of Soraya M. (2008) BDRip-AVC от New-Team | Дасевич бесплатно без регистрации




Оригинальная аудиодорожка: Английский

Сэмпл:В ролях:
Шоре Агдашлу, Можан Марно, Джеймс Кэвизел, Навид Негабан, Али Порташ, Дэвид Диаан, Парвиз Сайяд, Вида Гахремани, Вачик Мангассариан, Бита Шейбани

Перевод:Страна: США
Аудио кодек: AC3
Видео кодек: AVC
multi-up

Аудио #2: English, 448 Кбит/сек, 48,0 КГц, 16 бит, 6 канала(ов), AC-3


MediaInfo
Общее
Уникальный идентификатор : 235344978626729819104415054134609375911 (0xB10DCB4E0F2993E0BDF52233D372F2A7)
Полное имя : K:TEMPПобивание камнями Сорайи МPobivanie.kamnjami.Soraji.M.BDRip-AVC.AVO.2.18Gb...stalkerok.new-team.mkv
Формат : Matroska
Размер файла : 2,18 Гбайт
Продолжительность : 1 ч. 54 м.
Общий поток : 2731 Кбит/сек
Название фильма : The Stoning of Soraya M. (2008) (New-Team) (Rip by Stalker oK)
Дата кодирования : UTC 2014-10-24 16:37:03
Программа кодирования : mkvmerge v6.1.0 ('Old Devil') built on Mar 4 2013 09:10:42
Библиотека кодирования : libebml v1.3.0 + libmatroska v1.4.0

Видео
Идентификатор : 1
Формат : AVC
Формат/Информация : Advanced Video Codec
Профиль формата : High@L4.1
Параметр CABAC формата : Да
Параметр ReFrames формата : 10 кадры
Параметры GOP формата : M=6, N=7
Идентификатор кодека : V_MPEG4/ISO/AVC
Продолжительность : 1 ч. 54 м.
Битрейт : 1834 Кбит/сек
Ширина : 1024 пикс.
Высота : 436 пикс.
Соотношение сторон : 2,35:1
Частота кадров : 23,976 кадр/сек
Цветовое пространство : YUV
Подвыборка цветности : 4:2:0
Битовая глубина : 8 бит
Тип развёртки : Прогрессивная
Бит/(Пиксели*Кадры) : 0.171
Размер потока : 1,42 Гбайт (65%)
Библиотека кодирования : x264 core 142 r2431 ac76440
Настройки программы : cabac=1 / ref=10 / deblock=1:-3:-3 / analyse=0x3:0x133 / me=umh / subme=11 / psy=1 / psy_rd=1.00:0.15 / mixed_ref=1 / me_range=48 / chroma_me=1 / trellis=2 / 8x8dct=1 / cqm=0 / deadzone=21,11 / fast_pskip=0 / chroma_qp_offset=-3 / threads=12 / lookahead_threads=3 / sliced_threads=0 / nr=0 / decimate=0 / interlaced=0 / bluray_compat=0 / constrained_intra=0 / bframes=11 / b_pyramid=2 / b_adapt=2 / b_bias=0 / direct=3 / weightb=1 / open_gop=0 / weightp=2 / keyint=240 / keyint_min=23 / scenecut=40 / intra_refresh=0 / rc_lookahead=80 / rc=2pass / mbtree=0 / bitrate=1834 / ratetol=1.0 / qcomp=0.70 / qpmin=0 / qpmax=69 / qpstep=4 / cplxblur=20.0 / qblur=0.5 / vbv_maxrate=25000 / vbv_bufsize=30000 / nal_hrd=none / filler=0 / ip_ratio=1.20 / pb_ratio=1.10 / aq=2:0.90

Аудио #1
Идентификатор : 2
Формат : AC-3
Формат/Информация : Audio Coding 3
Расширение режима : CM (complete main)
Идентификатор кодека : A_AC3
Продолжительность : 1 ч. 54 м.
Вид битрейта : Постоянный
Битрейт : 448 Кбит/сек
Канал(ы) : 6 канала(ов)
Расположение каналов : Front: L C R, Side: L R, LFE
Частота : 48,0 КГц
Битовая глубина : 16 бит
Метод сжатия : С потерями
Размер потока : 367 Мбайт (16%)
Заголовок : А.Дасевич
Язык : Russian

Аудио #2
Идентификатор : 3
Формат : AC-3
Формат/Информация : Audio Coding 3
Расширение режима : CM (complete main)
Идентификатор кодека : A_AC3
Продолжительность : 1 ч. 54 м.
Вид битрейта : Постоянный
Битрейт : 448 Кбит/сек
Канал(ы) : 6 канала(ов)
Расположение каналов : Front: L C R, Side: L R, LFE
Частота : 48,0 КГц
Битовая глубина : 16 бит
Метод сжатия : С потерями
Размер потока : 367 Мбайт (16%)
Язык : English

Текст #1
Идентификатор : 4
Формат : UTF-8
Идентификатор кодека : S_TEXT/UTF8
Идентификатор кодека/Информация : UTF-8 Plain Text
Язык : Russian

Текст #2
Идентификатор : 5
Формат : UTF-8
Идентификатор кодека : S_TEXT/UTF8
Идентификатор кодека/Информация : UTF-8 Plain Text
Язык : English

Меню
00:00:00.000 : en:Chapter 1
00:09:53.092 : en:Chapter 2
00:15:21.921 : en:Chapter 3
00:23:10.388 : en:Chapter 4
00:31:49.407 : en:Chapter 5
00:41:35.492 : en:Chapter 6
00:49:13.449 : en:Chapter 7
00:56:04.861 : en:Chapter 8
01:04:36.372 : en:Chapter 9
01:10:32.228 : en:Chapter 10
01:18:07.682 : en:Chapter 11
01:22:26.942 : en:Chapter 12
01:30:07.902 : en:Chapter 13
01:39:50.984 : en:Chapter 14
01:43:58.732 : en:Chapter 15
01:51:11.164 : en:Chapter 16
01:54:20.436 : en:Chapter 17





ЗалилЗабрасывая камнями / Побивание камнями Сорайи М.
The Stoning of Soraya M.

«When a deadly conspiracy became a shameful cover-up One witness refused to be silent»





Продолжительность: 01:54:20

Автор рипа:Релиз:

Stalker oK

S.T.A.L.K.E.R.2 Оценка10 из 10 (3 голосов, самая низкая оценка - 10, самая высокая - 10) КатегорияЗарубежные фильмы Раздают2 Качают0 Сидер замечен14-06-2019 15:19:12 (4 минуты назад) Добавлен24-10-2014 22:06:06 (56 месяцев назад) Размер2.18 GB (2342870935 Bytes)Качество видео:Видео: 1834 Кбит/сек, 1024*436 (2,35:1), в 23,976 кадр/сек, AVC
Аудио #1: Russian, 448 Кбит/сек, 48,0 КГц, 16 бит, 6 канала(ов), AC-3
Студия: Fallen Films, Mpower Distribution, Mpower Pictures, Prime Meridian Pctures, Roadside Attractions
Жанр: драма
Описание:
У журналиста, работающего в Иране, ломается машина, он просит помощи в местной деревне. Но помощь нужна не ему одному. Здесь он встречает женщину по имени Захра, которая хочет рассказать о своей племяннице Сорайе и о кровавых обстоятельствах ее вчерашней смерти в надежде обличить жестокие законы шариата. Ее последняя и единственная надежда на справедливость — этот журналист, который должен уйти с историей, чтобы рассказать о насилии всему миру.




Cубтитры: Русские, Английские
Год выпуска: 2008
Формат видео: MKV
BDRip-AVC [Blu-ray Remux 1080p HDCLUB]
Авторский (одноголосый закадровый) [А. Дасевич]
Режиссер:
Сайрус Наурастех / Cyrus Nowrasteh

Если у вас возникли проблемы с закачкой Забрасывая камнями / Побивание камнями Сорайи М. / The Stoning of Soraya M. (2008) BDRip-AVC от New-Team | Дасевич, перейдите по ссылке - там вы найдете решение своей проблемы.

Категория: Зарубежные фильмы

 

Скачать Забрасывая камнями / Побивание камнями Сорайи М. / The Stoning of Soraya M. (2008) BDRip-AVC от New-Team | Дасевич бесплатно без регистрации

 

Информация
Посетители, находящиеся в группе Гости, не могут оставлять комментарии к данной публикации.
 
 
Скачать Забрасывая камнями / Побивание камнями Сорайи М. / The Stoning of Soraya M. (2008) BDRip-AVC от New-Team | Дасевич бесплатно без регистрацииCopyright © 2019 .