Скачать Человек-оркестр / L'Homme Orchestre (1970) BDRip-AVC | D бесплатно без регистрации






Год выхода: 1970
В ролях: Луи де Фюнес, Ноэль Адам, Оливье Де Фюнес, Дэниэл Беллю, Макс Деро, Тиберио Мурджа, Виттория Ди Сильверио, Мартина Келли, Паола Тедеско, Франко Вольпи

Страна: Франция
Перевод: Профессиональный (дублированный)


Звук: AAC-HE, 2 ch, 72 Кбит/с


General
Unique ID : 221206805234171971779229935372133948362 (0xA66AE189E3A4A8FBEB3AC61052835BCA)
Complete name : D:КЭШЧеловек-оркестр.mkv
Format : Matroska
Format version : Version 4 / Version 2
File size : 745 MiB
Duration : 1 h 25 min
Overall bit rate : 1 218 kb/s
Encoded date : UTC 2019-02-25 10:24:21
Writing application : mkvmerge v25.0.0 ('Prog Noir') 64-bit
Writing library : libebml v1.3.6 + libmatroska v1.4.9
Cover : Yes
Attachments : Cover.png

Video
ID : 1
Format : AVC
Format/Info : Advanced Video Codec
Format profile : High@L4.1
Format settings : CABAC / 12 Ref Frames
Format settings, CABAC : Yes
Format settings, ReFrames : 12 frames
Codec ID : V_MPEG4/ISO/AVC
Duration : 1 h 25 min
Bit rate : 1 143 kb/s
Width : 720 pixels
Height : 304 pixels
Display aspect ratio : 2.35:1
Frame rate mode : Constant
Frame rate : 24.000 FPS
Color space : YUV
Chroma subsampling : 4:2:0
Bit depth : 8 bits
Scan type : Progressive
Bits/(Pixel*Frame) : 0.218
Stream size : 699 MiB (94%)
Writing library : x264 core 152 r2851 ba24899
Encoding settings : cabac=1 / ref=12 / deblock=1:-3:-3 / analyse=0x3:0x133 / me=umh / subme=11 / psy=1 / psy_rd=1.00:0.15 / mixed_ref=1 / me_range=48 / chroma_me=1 / trellis=2 / 8x8dct=1 / cqm=0 / deadzone=21,11 / fast_pskip=0 / chroma_qp_offset=-3 / threads=6 / lookahead_threads=1 / sliced_threads=0 / nr=0 / decimate=0 / interlaced=0 / bluray_compat=0 / constrained_intra=0 / bframes=11 / b_pyramid=2 / b_adapt=2 / b_bias=0 / direct=3 / weightb=1 / open_gop=0 / weightp=2 / keyint=240 / keyint_min=23 / scenecut=40 / intra_refresh=0 / rc=2pass / mbtree=0 / bitrate=1143 / ratetol=1.0 / qcomp=0.60 / qpmin=0 / qpmax=69 / qpstep=4 / cplxblur=20.0 / qblur=0.5 / ip_ratio=1.40 / pb_ratio=1.30 / aq=1:1.00
Default : Yes
Forced : No

Audio
ID : 2
Format : AAC
Format/Info : Advanced Audio Codec
Format profile : HE-AAC / LC
Format settings : Explicit
Codec ID : A_AAC-2
Duration : 1 h 25 min
Bit rate : 72.0 kb/s
Channel(s) : 2 channels
Channel positions : Front: L R
Sampling rate : 48.0 kHz / 24.0 kHz
Frame rate : 23.438 FPS (1024 SPF)
Compression mode : Lossy
Delay relative to video : 31 ms
Stream size : 44.0 MiB (6%)
Default : Yes
Forced : No


Оценка10 из 10 (2 голосов, самая низкая оценка - 10, самая высокая - 10) КатегорияЗарубежные фильмы Раздают0 Качают0 Сидер замечен12-06-2019 19:19:12 (2 дня назад) Добавлен25-02-2019 15:52:15 (4 месяца назад) Размер745.05 MB (781238300 Bytes)Продолжительность: 01:25:30
Студия: Gaumont Distribution, Gaumont International
Название: Человек-оркестр
Жанр: Мюзикл, комедия
Режиссер: Серж Корбер
О фильме:
Балетный импресарио Эван-Эванс вместе со своим племянником Филиппом тщательно следит, чтобы его танцовщицы не имели контактов с мужчинами, так как это может помешать их работе. Но во время турне по Италии выясняется, что у одной из девушек уже есть ребенок. Тирану Эвансу приходится опекать его, так как он считает, что малыш — сын Филиппа. Через некоторое время появляется еще один ребенок, на этот раз — действительно внучатый племянник Эванса. Новоиспеченный дедушка готов сойти с ума, а большое турне в итоге превращается в большой сумасшедший дом.



Кодек: x.264
Качество: BDRip-AVC
Видео: MPEG-4 AVC, 1143 Кбит/с, 720x304, 0.218 bit/pixel
Оригинальное название: L'homme orchestre

Если у вас возникли проблемы с закачкой Человек-оркестр / L'Homme Orchestre (1970) BDRip-AVC | D, перейдите по ссылке - там вы найдете решение своей проблемы.

Категория: Зарубежные фильмы

 

Скачать Человек-оркестр / L'Homme Orchestre (1970) BDRip-AVC | D бесплатно без регистрации

 

Информация
Посетители, находящиеся в группе Гости, не могут оставлять комментарии к данной публикации.
 
 
Скачать Человек-оркестр / L'Homme Orchestre (1970) BDRip-AVC | D бесплатно без регистрацииCopyright © 2019 .