Скачать Путь на юг / Southbound (2015) WEB-DLRip-AVC | A, L1 бесплатно без регистрации






Субтитры: Отсутствуют
Описание:
Волею судьбы или какой-то другой неведомой силы на шоссе, ведущем на юг, оказываются совершенно разные люди. Все они едут по этой дороге с определенной целью, и у каждого из них имеются свои скелеты в шкафу. Но во время поездки все они столкнуться с непреодолимым кошмаром, который заставит их всерьез задуматься о содеянных поступках...




Внимание! В переводе присутствует нецензурная лексика

Режиссер: Роксанна Бенжамин, Дэвид Брукнер, Патрик Хорват
Качество видео: WEB-DLRip-AVC
Продолжительность: 01:29:03
Видео: AVC, 1024x432 (2.35:1), 23.976 fps, 2 598 Kbps (0.245 bit/pixel)
Аудио #1: AC-3, 48.0 KHz, 6 ch, 448 Kbps, CBR (Russian)
Производство: США
Актеры: Чад Виллелла, Мэттью Беттинелли, Кристина Пешич, Фаббианн Терез, Натали Лав, Ханна Маркс, Дэна Гулд, Энесса Ремси, Сьюзэн Бурк, Дэйв Джонсон

Жанр: Триллер, Фантастика, Ужасы

Продюсер: Роксанна Бенжамин, Крис Хардинг, Брэд Миска
Скриншоты:
ОценкаНикто ещё не поставил оценку КатегорияЗарубежные фильмы Раздают0 Качают0 Сидер замечен29-05-2019 18:19:11 (16 дней назад) Добавлен13-05-2016 17:13:16 (38 месяцев назад) Размер2.17 GB (2333268976 Bytes)Аудио #2: AC-3, 48.0 KHz, 6 ch, 448 Kbps, CBR (Russian)
Перевод: Авторский одноголосый Д.Есарев , любительский одноголосый В.Куролесов по субтитрам Enigma
Сэмпл

Mediainfo:Формат : Matroska
Версия формата : Version 2
Размер файла : 2,17 Гбайт
Продолжительность : 1 ч. 29 м.
Общий поток : 3494 Кбит/сек
Дата кодирования : UTC 2016-05-13 13:21:10
Программа кодирования : mkvmerge v5.3.0 ('I could have danced') built on Feb 9 2012 10:38:07
Библиотека кодирования : libebml v1.2.3 + libmatroska v1.3.0
Attachment : Yes

Видео
Идентификатор : 1
Формат : AVC
Формат/Информация : Advanced Video Codec
Профиль формата : High@L4.1
Параметр CABAC формата : Да
Параметр ReFrames формата : 9 кадров
Идентификатор кодека : V_MPEG4/ISO/AVC
Продолжительность : 1 ч. 29 м.
Битрейт : 2598 Кбит/сек
Ширина : 1024 пикселя
Высота : 432 пикселя
Соотношение сторон : 2,40:1
Режим частоты кадров : Постоянный
Частота кадров : 23,976 кадра/сек
Цветовое пространство : YUV
Субдискретизация насыщенности : 4:2:0
Битовая глубина : 8 бит
Тип развёртки : Прогрессивная
Бит/(Пиксели*Кадры) : 0.245
Размер потока : 1,57 Гбайт (72%)
Библиотека кодирования : x264 core 146 r2538 121396c
Настройки программы : cabac=1 / ref=9 / deblock=1:-2:-1 / analyse=0x3:0x133 / me=umh / subme=10 / psy=1 / psy_rd=1.00:0.10 / mixed_ref=1 / me_range=32 / chroma_me=1 / trellis=2 / 8x8dct=1 / cqm=0 / deadzone=21,11 / fast_pskip=0 / chroma_qp_offset=-3 / threads=12 / lookahead_threads=2 / sliced_threads=0 / nr=0 / decimate=0 / interlaced=0 / bluray_compat=0 / constrained_intra=0 / bframes=8 / b_pyramid=2 / b_adapt=2 / b_bias=0 / direct=3 / weightb=1 / open_gop=0 / weightp=2 / keyint=240 / keyint_min=23 / scenecut=40 / intra_refresh=0 / rc=2pass / mbtree=0 / bitrate=2598 / ratetol=1.0 / qcomp=0.60 / qpmin=0 / qpmax=69 / qpstep=4 / cplxblur=20.0 / qblur=0.5 / ip_ratio=1.40 / pb_ratio=1.30 / aq=1:0.90
Default : Да
Forced : Нет

Аудио #1
Идентификатор : 2
Формат : AC-3
Формат/Информация : Audio Coding 3
Расширение режима : CM (complete main)
Параметр Endianness формата : Big
Идентификатор кодека : A_AC3
Продолжительность : 1 ч. 29 м.
Вид битрейта : Постоянный
Битрейт : 448 Кбит/сек
Каналы : 6 каналов
Расположение каналов : Front: L C R, Side: L R, LFE
Частота : 48,0 КГц
Битовая глубина : 16 бит
Метод сжатия : С потерями
Размер потока : 285 Мбайт (13%)
Заголовок : Авторский Д.Есарев
Язык : Russian
Default : Нет
Forced : Нет

Аудио #2
Идентификатор : 3
Формат : AC-3
Формат/Информация : Audio Coding 3
Расширение режима : CM (complete main)
Параметр Endianness формата : Big
Идентификатор кодека : A_AC3
Продолжительность : 1 ч. 29 м.
Вид битрейта : Постоянный
Битрейт : 448 Кбит/сек
Каналы : 6 каналов
Расположение каналов : Front: L C R, Side: L R, LFE
Частота : 48,0 КГц
Битовая глубина : 16 бит
Метод сжатия : С потерями
Размер потока : 285 Мбайт (13%)
Заголовок : любительский В.Куролесов
Язык : Russian
Default : Нет
Forced : Нет

Меню
00:00:00.000 : en:The Way Out
00:12:52.000 : en:Siren
00:33:20.000 : en:The Accident
00:52:56.000 : en:Jailbreak
01:06:28.000 : en:The Way In

Если у вас возникли проблемы с закачкой Путь на юг / Southbound (2015) WEB-DLRip-AVC | A, L1, перейдите по ссылке - там вы найдете решение своей проблемы.

Категория: Зарубежные фильмы

 

Скачать Путь на юг / Southbound (2015) WEB-DLRip-AVC | A, L1 бесплатно без регистрации

 

Информация
Посетители, находящиеся в группе Гости, не могут оставлять комментарии к данной публикации.
 
 
Скачать Путь на юг / Southbound (2015) WEB-DLRip-AVC | A, L1 бесплатно без регистрацииCopyright © 2019 .