Скачать Мэр / The Mayor [S01] (2017) WEB-DL 1080p | Кириллица бесплатно без регистрации






Кириллица|: AC3, 48 kHz, 2 ch, 192 kbps
английская |Аудио кодек: AC3
Продолжительность: ~00:22:00 минут (серия)

Видео: MPEG-4 AVC, 1920x1080, 23.976 fps, ~5083 kbps
Субтитры: нет
Качество: WEB-DL 1080p
v.serij2013 (т.е.,В ролях: Брэндон Майкл Холл, Лиа Мишель, Бернард Джонс, Иветт Николь Браун, Дэвид Спейд, Крэйг Каковски, Джиллиан Арменанте, Венди Рэкуэл Робинсон и другие.
РЕЛИЗ ОТ:TeamHD

СпасибоОписание: При демократии каждый может стать крупным политиком, если за него проголосует народ. Главный герой не планировал возглавлять свой город. Он выдвинул свою кандидатуру лишь для того, чтобы прорекламировать свою музыку. Но люди так устали от прежней власти, что проголосовали за двадцатисемилетнего чернокожего рэпера. И теперь ему нужно срочно разбираться, как командовать городом и делать жизнь его жителей лучше.



Видео кодек: AVC
Год выпуска: 2017
Режиссёр: Джеймс Гриффитс / James Griffiths
Аудио: русская |v.serij2013Оригинал|: AC3, 48 kHz, 6 ch, 384 kbps
Страна: США
Mary_Miller за постер иЖанр: комедия
Студия: ABC Studios
Реклама: нет

Список серий01. Pilot
02. The Filibuster
03. Buyer's Remorse
04. City Hall-oween
05. The Strike
06. Will You Accept This Rose
07. Here Comes The Governor
08. Monuments Man
09. Grey Christmas
10. Mama Rose Best
11. The Lockdown
12. The Pitch
13. Death of a CouncilmanMedia InfoGeneral
Unique ID : 316028208734835305354710933484866800029 (0xEDC0D1AD164528B900B82049E852899D)
Complete name : E:VideoHDThe.Mayor.2017.S01.1080p.WEB-DL.Rus.Eng.TeamHDThe.Mayor.2017.S01E01.Pilot.1080p.WEB-DL.Rus.Eng.TeamHD.mkv
Format : Matroska
Format version : Version 4 / Version 2
File size : 889 MiB
Duration : 21mn 31s
Overall bit rate : 5 774 Kbps
Encoded date : UTC 2018-09-14 09:01:58
Writing application : mkvmerge v20.0.0 ('I Am The Sun') 32-bit
Writing library : libebml v1.3.5 + libmatroska v1.4.8
DURATION : 00:21:31.840000000
NUMBER_OF_FRAMES : 40370
NUMBER_OF_BYTES : 31004160
_STATISTICS_WRITING_APP : mkvmerge v20.0.0 ('I Am The Sun') 32-bit
_STATISTICS_WRITING_DATE_UTC : 2018-09-14 09:01:58
_STATISTICS_TAGS : BPS DURATION NUMBER_OF_FRAMES NUMBER_OF_BYTES

Video
ID : 1
Format : AVC
Format/Info : Advanced Video Codec
Format profile : High@L4.0
Format settings, CABAC : Yes
Format settings, ReFrames : 4 frames
Codec ID : V_MPEG4/ISO/AVC
Duration : 21mn 31s
Bit rate : 5 083 Kbps
Width : 1 920 pixels
Height : 1 080 pixels
Display aspect ratio : 16:9
Frame rate mode : Constant
Frame rate : 23.976 fps
Color space : YUV
Chroma subsampling : 4:2:0
Bit depth : 8 bits
Scan type : Progressive
Bits/(Pixel*Frame) : 0.102
Stream size : 783 MiB (88%)
Language : English
Default : Yes
Forced : No
Color primaries : BT.709
Transfer characteristics : BT.709
Matrix coefficients : BT.709
Color range : Limited

Audio #1
ID : 2
Format : AC-3
Format/Info : Audio Coding 3
Mode extension : CM (complete main)
Format settings, Endianness : Big
Codec ID : A_AC3
Duration : 21mn 31s
Bit rate mode : Constant
Bit rate : 192 Kbps
Channel(s) : 2 channels
Channel positions : Front: L R
Sampling rate : 48.0 KHz
Bit depth : 16 bits
Compression mode : Lossy
Stream size : 29.6 MiB (3%)
Title : MVO (Кириллица)
Language : Russian
Default : Yes
Forced : No

Audio #2
ID : 3
Format : AC-3
Format/Info : Audio Coding 3
Mode extension : CM (complete main)
Format settings, Endianness : Big
Codec ID : A_AC3
Duration : 21mn 31s
Bit rate mode : Constant
Bit rate : 384 Kbps
Channel(s) : 6 channels
Channel positions : Front: L C R, Side: L R, LFE
Sampling rate : 48.0 KHz
Bit depth : 16 bits
Compression mode : Lossy
Stream size : 59.1 MiB (7%)
Title : Original
Language : English
Default : No
Forced : NoСкриншоты
ОценкаНикто ещё не поставил оценку КатегорияЗарубежные сериалы Раздают0 Качают0 Сидер замечен30-10-2018 17:19:07 (8 месяцев назад) Добавлен10-10-2018 20:29:36 (8 месяцев назад) Размер11.14 GB (11957931913 Bytes)мне) за сведение.

"Кириллица" |Александр Носков, Павел Кипнис, Елена Солодилина, Инга Сметанина

Bаdmotherfucker за запись звука,Формат: MKV
Перевод: Профессиональный (многоголосый закадровый) студия

Если у вас возникли проблемы с закачкой Мэр / The Mayor [S01] (2017) WEB-DL 1080p | Кириллица, перейдите по ссылке - там вы найдете решение своей проблемы.

Категория: Зарубежные сериалы

 

Скачать Мэр / The Mayor [S01] (2017) WEB-DL 1080p | Кириллица бесплатно без регистрации

 

Информация
Посетители, находящиеся в группе Гости, не могут оставлять комментарии к данной публикации.
 
 
Скачать Мэр / The Mayor [S01] (2017) WEB-DL 1080p | Кириллица бесплатно без регистрацииCopyright © 2019 .