Скачать Ночь живых придурков / Die Nacht der lebenden Loser (2004) DVDRip от New-Team | P2 бесплатно без регистрации






Страна: Германия / Constantin Film Produktion GmbH, H&V Entertainment, Hofmann & Voges Entertainment GmbH

В ролях: Тино Мевес, Мануэль Кортес, Томас Шмидер, Колльен Ульмен-Фернендес, Хендрик Боргманн, Надин Германн, Сисси Перлингер, Хенри Грюндлер, Патриция Тилеманн, Оливер Гробер...

Жанр: ужасы, комедия
Описание: Трое друзей не пользуются особой популярностью в школе. Но однажды, возвращаясь домой после магического обряда Вуду, они попадают в жуткую автокатастрофу. Очнувшись уже в морге, с бирками на ногах, парни догадываются, что превратились в зомби. И благодаря этому стали умными, сильными и совершенно невосприимчивыми к боли. Теперь друзья могут записаться в школьную команду по регби, посчитаться со своими обидчиками и завоевать любовь самых красивых и недоступных девушек. Но единственный способ вернуться к нормальной жизни — магический эликсир, состоящий из святой воды и крови девственницы…



Качество: DVDRip / DVD5 R5
Раздача от:
MediaInfo
General
Format : AVI
Format/Info : Audio Video Interleave
Format profile : OpenDML
File size : 2.03 GiB
Duration : 1h 27mn
Overall bit rate : 3 315 Kbps
Writing application : VirtualDubModRus 1.5.10.2 (build 2542/release)
Writing library : VirtualDubMod build 2542/release

Video
ID : 0
Format : MPEG-4 Visual
Format profile : Advanced Simple@L5
Format settings, BVOP : 1
Format settings, QPel : No
Format settings, GMC : No warppoints
Format settings, Matrix : Custom
Codec ID : XVID
Codec ID/Hint : XviD
Duration : 1h 27mn
Bit rate : 2 400 Kbps
Width : 704 pixels
Height : 384 pixels
Display aspect ratio : 1.85:1
Frame rate : 25.000 fps
Color space : YUV
Chroma subsampling : 4:2:0
Bit depth : 8 bits
Scan type : Progressive
Compression mode : Lossy
Bits/(Pixel*Frame) : 0.355
Stream size : 1.47 GiB (72%)
Writing library : XviD 73

Audio #1
ID : 1
Format : AC-3
Format/Info : Audio Coding 3
Mode extension : CM (complete main)
Format settings, Endianness : Big
Codec ID : 2000
Duration : 1h 27mn
Bit rate mode : Constant
Bit rate : 448 Kbps
Channel(s) : 6 channels
Channel positions : Front: L C R, Side: L R, LFE
Sampling rate : 48.0 KHz
Bit depth : 16 bits
Compression mode : Lossy
Stream size : 281 MiB (14%)
Alignment : Split accross interleaves
Interleave, duration : 40 ms (1.00 video frame)
Interleave, preload duratio : 500 ms

Audio #2
ID : 2
Format : AC-3
Format/Info : Audio Coding 3
Mode extension : CM (complete main)
Format settings, Endianness : Big
Codec ID : 2000
Duration : 1h 27mn
Bit rate mode : Constant
Bit rate : 448 Kbps
Channel(s) : 6 channels
Channel positions : Front: L C R, Side: L R, LFE
Sampling rate : 48.0 KHz
Bit depth : 16 bits
Compression mode : Lossy
Stream size : 281 MiB (14%)
Alignment : Split accross interleaves
Interleave, duration : 40 ms (1.00 video frame)
Interleave, preload duratio : 500 ms

Скриншоты:

ОценкаНикто ещё не поставил оценку КатегорияЗарубежные фильмы Раздают2 Качают0 Сидер замечен14-06-2019 9:19:12 (4 минуты назад) Добавлен19-01-2015 13:16:39 (54 месяца назад) Размер2.03 GB (2176795612 Bytes)Cубтитры: русский
Аудио 2: Немецкий: 48 kHz, AC3, 3/2 (L,C,R,l,r) + LFE ch, 448.00 kbps | оригинал
Продолжительность: 01:27:33

Год выпуска: 2004
Видео: 704x384 (1.85:1), XviD 2400 Кбит/сек / 25.000 fps / Бит/(Пиксели*Кадры) : 0.355
Аудио 1: Русский: 48 kHz, AC3, 3/2 (L,C,R,l,r) + LFE ch, 448.00 kbps | двухголосый закадровый
Формат: AVI

Формат субтитров: SoftSub (srt)

Оригинальная аудиодорожка: немецкий

Режиссер: Матиас Динтер / Mathias Dinter

Перевод: Профессиональный (двухголосый)

Если у вас возникли проблемы с закачкой Ночь живых придурков / Die Nacht der lebenden Loser (2004) DVDRip от New-Team | P2, перейдите по ссылке - там вы найдете решение своей проблемы.

Категория: Зарубежные фильмы

 

Скачать Ночь живых придурков / Die Nacht der lebenden Loser (2004) DVDRip от New-Team | P2 бесплатно без регистрации

 

Информация
Посетители, находящиеся в группе Гости, не могут оставлять комментарии к данной публикации.
 
 
Скачать Ночь живых придурков / Die Nacht der lebenden Loser (2004) DVDRip от New-Team | P2 бесплатно без регистрацииCopyright © 2019 .