Скачать Сказания Зестирии [ТВ-2] / Tales of Zestiria: The X [S02] (2017) HDTVRip 720p | AniDub, SHIZA Project бесплатно без регистрации






Страна: Япония
Субтитры: русские (встроенные полный перевод, ASS) - Daisuki

Озвучивание: Nika Lenina, Гамлетка Цезаревна, BalFor, Cuba77
Видео: 1280x720, 23.976 fps, 1700 kbps
Кодек: H.264
Файл
Релиз от:
Качество: HDTVRip
Оригинальное название: Tales of Zestiria: The X
Год выхода: 2017
Жанр: фэнтези, приключения
Аудио RUS: 48.0 kHz, AAC, 2 ch, 192 kbps - SHIZA Project (01-12)
О фильме:
Юноша по имени Слей вырос в окружении серафимов — божественных существ, скрытых от глаз обычных людей. Он всегда верил в легенду, гласящую, что давным-давно каждый без исключения человек мог видеть серафимов, и мечтал, чтобы обе расы снова начали жить в мире и гармонии друг с другом. Впервые очутившись в человеческой столице, Слей невольно становится участником инцидента, в ходе которого вытаскивает из скалы святой меч. Следом за этим он провозглашается одним из тех, кого называют «пастырями», — человеком, обязанным защищать мир от зла. Вскоре юноша начинает осознавать, какая ответственность лежит на его плечах, и мечта о сосуществовании людей и серафимов становится все реальней... На пути к желаемому юного пастыря поджидает множество опасностей, но вместе с верными друзьями он обязательно преодолеет их все!


World Art | MAL

Информация о фильме
Язык: Русский, Японский
Аудио кодек: AAC
Продолжительность: 00:24:00
Режиссер: Сотодзаки Харуо
Аудио RUS: 48.0 kHz, AAC, 2 ch, 192 kbps - AniDub
Релиз от:
В ролях: Кимура Рёхэй, Осака Рёта, Каяно Ай, Комацу Микако, Ситая Норико, Фукуэн Мисато, Оно Дайсукэ, Цуда Кэндзиро, Сато Рина
Художник: Ким Мин Джи
Озвучивание: Dancel, Lianna (01-05), Abe (06-12), Лизавета (06-12)
Тайминг и работа со звуком: NeSqUiK

Скриншоты
Список серий01. (13) Мир без Скверны.
02. (14) Дезель - Серафим ветра.
03. (15) Философия каждого.
04. (16) Месть.
05. (17) Правосудие в руках, а не в чьих-то идеалах.
06. (18) Переговоры.
07. (19) Озёрный Град.
08. (20) Очищение.
09. (21) Идеальный мир.
10. (22) Северные земли.
11. (23) Стань ветром.
12. (24) Ответ, к которому мы пришли.
13. (25) Легенда.
MediaInfoGeneral
Format : Matroska
Format version : Version 4 / Version 2
File size : 375 MiB
Duration : 24 min
Overall bit rate : 2 183 kb/s
Encoded date : UTC 2017-01-24 06:04:23
Writing application : mkvmerge v8.3.0 ('Over the Horizon') 64bit
Writing library : libebml v1.3.1 + libmatroska v1.4.2

Video
ID : 1
Format : AVC
Format/Info : Advanced Video Codec
Format profile : High@L4.1
Format settings, CABAC : Yes
Format settings, ReFrames : 4 frames
Codec ID : V_MPEG4/ISO/AVC
Duration : 23 min
Bit rate : 1 634 kb/s
Width : 1 280 pixels
Height : 720 pixels
Display aspect ratio : 16:9
Frame rate mode : Constant
Frame rate : 23.976 (24000/1001) FPS
Color space : YUV
Chroma subsampling : 4:2:0
Bit depth : 8 bits
Scan type : Progressive
Bits/(Pixel*Frame) : 0.074
Stream size : 280 MiB (75%)
Writing library : x264 core 129 r2245+729M 1a52e03
Encoding settings : cabac=1 / ref=4 / deblock=1:1:-1 / analyse=0x3:0x113 / me=umh / subme=9 / psy=1 / fade_compensate=0.00 / psy_rd=1.00:0.00 / mixed_ref=1 / me_range=24 / chroma_me=1 / trellis=2 / 8x8dct=1 / cqm=0 / deadzone=21,11 / fast_pskip=1 / chroma_qp_offset=-2 / threads=8 / lookahead_threads=1 / sliced_threads=0 / nr=0 / decimate=1 / interlaced=0 / bluray_compat=0 / constrained_intra=0 / fgo=0 / bframes=9 / b_pyramid=2 / b_adapt=2 / b_bias=0 / direct=1 / weightb=1 / open_gop=0 / weightp=2 / keyint=240 / keyint_min=24 / scenecut=40 / intra_refresh=0 / rc=crf / mbtree=0 / crf=18.5 / qcomp=0.72 / qpmin=0 / qpmax=69 / qpstep=4 / ip_ratio=1.40 / pb_ratio=1.30 / aq=1:0.85
Default : Yes
Forced : No
Color range : Limited
Color primaries : BT.709
Transfer characteristics : BT.709
Matrix coefficients : BT.709

Audio #1
ID : 2
Format : AAC
Format/Info : Advanced Audio Codec
Format profile : LC
Codec ID : A_AAC
Duration : 23 min
Bit rate : 192 kb/s
Channel(s) : 2 channels
Channel positions : Front: L R
Sampling rate : 48.0 kHz
Frame rate : 46.875 FPS (1024 spf)
Compression mode : Lossy
Stream size : 33.0 MiB (9%)
Title : SHIZA Project
Language : Russian
Default : Yes
Forced : No

Audio #2
ID : 3
Format : AAC
Format/Info : Advanced Audio Codec
Format profile : LC
Codec ID : A_AAC
Duration : 24 min
Bit rate : 165 kb/s
Channel(s) : 2 channels
Channel positions : Front: L R
Sampling rate : 48.0 kHz
Frame rate : 46.875 FPS (1024 spf)
Compression mode : Lossy
Stream size : 28.4 MiB (8%)
Title : AniDub
Language : Russian
Default : No
Forced : No

Audio #3
ID : 4
Format : AAC
Format/Info : Advanced Audio Codec
Format profile : LC
Codec ID : A_AAC
Duration : 23 min
Bit rate : 192 kb/s
Channel(s) : 2 channels
Channel positions : Front: L R
Sampling rate : 48.0 kHz
Frame rate : 46.875 FPS (1024 spf)
Compression mode : Lossy
Stream size : 32.9 MiB (9%)
Title : Original
Language : Japanese
Default : No
Forced : No

Text
ID : 5
Format : ASS
Codec ID : S_TEXT/ASS
Codec ID/Info : Advanced Sub Station Alpha
Duration : 23 min
Bit rate : 136 b/s
Count of elements : 333
Compression mode : Lossless
Stream size : 23.6 KiB (0%)
Title : Полные субтитры
Language : Russian
Default : Yes
Forced : No
Оценка10 из 10 (1 голосов, самая низкая оценка - 10, самая высокая - 10) КатегорияАниме Раздают1 Качают0 Сидер замечен14-06-2019 3:19:11 (4 часа назад) Добавлен27-05-2017 8:45:02 (25 месяцев назад) Размер7.12 GB (7647616747 Bytes)Название: Сказания Зестирии [ТВ-2]
Аудио JAP: 48.0 kHz, AAC, 2 ch, 192 kbps
Студия: UFO Table
Перевод: Любительский (многоголосый, закадровый), Любительский (двухголосый, закадровый)

Перевод: ThisGuy
Формат: MKV
Тайминг и работа со звуком: Daelit, ERASP

Если у вас возникли проблемы с закачкой Сказания Зестирии [ТВ-2] / Tales of Zestiria: The X [S02] (2017) HDTVRip 720p | AniDub, SHIZA Project, перейдите по ссылке - там вы найдете решение своей проблемы.

Категория: Аниме

 

Скачать Сказания Зестирии [ТВ-2] / Tales of Zestiria: The X [S02] (2017) HDTVRip 720p | AniDub, SHIZA Project бесплатно без регистрации

 

Информация
Посетители, находящиеся в группе Гости, не могут оставлять комментарии к данной публикации.
 
 
Скачать Сказания Зестирии [ТВ-2] / Tales of Zestiria: The X [S02] (2017) HDTVRip 720p | AniDub, SHIZA Project бесплатно без регистрацииCopyright © 2019 .