Скачать Курьер / The Courier (2011) BDRip-AVC от potroks бесплатно без регистрации






Качество: BDRip-AVC [Видео: H.264, 1024x434 (2,35:1), 23,976 fps, 1423 Кbps, 0.134 bit/pixel
Продолжительность: 01:35:09
ENG


RUS
Автор рипа:


MIОбщее
Уникальный идентификатор : 204667783792733168055049753723148098189 (0x99F994D313B7A6D5942E314DEEFADA8D)
Полное имя : Kur'er.2011.L2.BDRip.x264.potroks.mkv
Формат : Matroska
Версия формата : Version 2
Размер файла : 1,46 Гбайт
Продолжительность : 1 ч. 35 м.
Общий поток : 2193 Кбит/сек
Название фильма : -=POTROKS=-
Дата кодирования : UTC 2013-05-15 16:28:14
Программа кодирования : mkvmerge v5.9.0 ('On The Loose') built on Dec 15 2012 16:39:58
Библиотека кодирования : libebml v1.3.0 + libmatroska v1.4.0

Видео
Идентификатор : 1
Формат : AVC
Формат/Информация : Advanced Video Codec
Профиль формата : High@L4.1
Параметр CABAC формата : Да
Параметр ReFrames формата : 10 кадров
Идентификатор кодека : V_MPEG4/ISO/AVC
Продолжительность : 1 ч. 35 м.
Битрейт : 1423 Кбит/сек
Ширина : 1024 пикселя
Высота : 434 пикселя
Соотношение сторон : 2,35:1
Режим частоты кадров : Постоянный
Частота кадров : 23,976 кадра/сек
Цветовое пространство : YUV
Субдискретизация насыщенности : 4:2:0
Битовая глубина : 8 бит
Тип развёртки : Прогрессивная
Бит/(Пиксели*Кадры) : 0.134
Размер потока : 940 Мбайт (63%)
Заголовок : The Courier
Библиотека кодирования : x264 core 125 r2208 d9d2288
Настройки программы : cabac=1 / ref=10 / deblock=1:-2:-2 / analyse=0x3:0x133 / me=esa / subme=11 / psy=1 / psy_rd=1.05:0.02 / mixed_ref=1 / me_range=32 / chroma_me=1 / trellis=2 / 8x8dct=1 / cqm=0 / deadzone=21,11 / fast_pskip=0 / chroma_qp_offset=-3 / threads=9 / lookahead_threads=1 / sliced_threads=0 / nr=0 / decimate=1 / interlaced=0 / bluray_compat=0 / constrained_intra=0 / bframes=11 / b_pyramid=2 / b_adapt=2 / b_bias=0 / direct=3 / weightb=1 / open_gop=0 / weightp=2 / keyint=240 / keyint_min=23 / scenecut=40 / intra_refresh=0 / rc_lookahead=100 / rc=2pass / mbtree=1 / bitrate=1423 / ratetol=1.0 / qcomp=0.70 / qpmin=0 / qpmax=69 / qpstep=4 / cplxblur=20.0 / qblur=0.5 / vbv_maxrate=20000 / vbv_bufsize=20000 / nal_hrd=none / ip_ratio=1.35 / aq=1:0.70
Язык : English
Default : Да
Forced : Нет

Аудио #1
Идентификатор : 2
Формат : AC-3
Формат/Информация : Audio Coding 3
Расширение режима : CM (complete main)
Параметр Endianness формата : Big
Идентификатор кодека : A_AC3
Продолжительность : 1 ч. 35 м.
Вид битрейта : Постоянный
Битрейт : 384 Кбит/сек
Каналы : 6 каналов
Расположение каналов : Front: L C R, Side: L R, LFE
Частота : 48,0 КГц
Битовая глубина : 16 бит
Метод сжатия : С потерями
Размер потока : 261 Мбайт (18%)
Заголовок : MVO | DD 5.1 @ 384 kbps
Язык : Russian
Default : Да
Forced : Да

Аудио #2
Идентификатор : 3
Формат : AC-3
Формат/Информация : Audio Coding 3
Расширение режима : CM (complete main)
Параметр Endianness формата : Big
Идентификатор кодека : A_AC3
Продолжительность : 1 ч. 35 м.
Вид битрейта : Постоянный
Битрейт : 384 Кбит/сек
Каналы : 6 каналов
Расположение каналов : Front: L C R, Side: L R, LFE
Частота : 48,0 КГц
Битовая глубина : 16 бит
Метод сжатия : С потерями
Размер потока : 261 Мбайт (18%)
Заголовок : Original | DD 5.1 @ 384 kbps
Язык : English
Default : Нет
Forced : Нет

Меню
00:00:00.000 : en:00:00:00.000
00:08:23.378 : en:00:08:23.378
00:15:00.149 : en:00:15:00.149
00:18:39.452 : en:00:18:39.452
00:25:11.677 : en:00:25:11.677
00:30:42.049 : en:00:30:42.049
00:36:22.389 : en:00:36:22.389
00:42:55.698 : en:00:42:55.698
00:47:57.833 : en:00:47:57.833
00:52:31.065 : en:00:52:31.065
00:57:46.672 : en:00:57:46.672
01:02:56.731 : en:01:02:56.731
01:08:15.967 : en:01:08:15.967
01:13:34.368 : en:01:13:34.368
01:18:47.973 : en:01:18:47.973
01:22:29.194 : en:01:22:29.194
01:29:40.625 : en:01:29:40.625
log@x.264avs [info]: 1024x434p 1:1 @ 2500000/104271 fps (cfr)
x264 [info]: using SAR=1/1
x264 [info]: using cpu capabilities: MMX2 SSE2Fast SSSE3 FastShuffle SSE4.2 AVX XOP FMA4 SSEMisalign LZCNT
x264 [info]: profile High, level 4.1

x264 [info]: frame I:1489 Avg QP:14.74 size: 56549
x264 [info]: frame P:32225 Avg QP:17.20 size: 15749
x264 [info]: frame B:103181 Avg QP:21.35 size: 4109
x264 [info]: consecutive B-frames: 3.8% 3.3% 11.3% 19.8% 15.3% 38.7% 2.9% 0.9% 1.0% 0.5% 0.4% 1.0%
x264 [info]: mb I I16..4: 10.8% 59.8% 29.4%
x264 [info]: mb P I16..4: 1.9% 8.2% 2.1% P16..4: 30.7% 27.5% 9.5% 2.2% 0.4% skip:17.4%
x264 [info]: mb B I16..4: 0.3% 1.0% 0.3% B16..8: 30.7% 13.6% 1.9% direct: 2.7% skip:49.5% L0:40.2% L1:46.5% BI:13.3%
x264 [info]: 8x8 transform intra:64.3% inter:54.2%
x264 [info]: direct mvs spatial:96.4% temporal:3.6%
x264 [info]: coded y,uvDC,uvAC intra: 65.4% 59.0% 34.1% inter: 11.8% 7.4% 1.6%
x264 [info]: i16 v,h,dc,p: 39% 13% 6% 42%
x264 [info]: i8 v,h,dc,ddl,ddr,vr,hd,vl,hu: 15% 11% 9% 8% 10% 11% 11% 11% 13%
x264 [info]: i4 v,h,dc,ddl,ddr,vr,hd,vl,hu: 29% 10% 9% 6% 10% 9% 9% 8% 9%
x264 [info]: i8c dc,h,v,p: 34% 34% 21% 12%
x264 [info]: Weighted P-Frames: Y:4.6% UV:1.0%
x264 [info]: ref P L0: 55.4% 9.3% 15.7% 6.0% 3.8% 3.2% 2.3% 1.5% 1.2% 1.4% 0.3% 0.0%
x264 [info]: ref B L0: 82.4% 8.6% 4.0% 1.6% 1.2% 0.8% 0.8% 0.3% 0.2%
x264 [info]: ref B L1: 93.4% 6.6%
x264 [info]: kb/s:1423.05

x264 [total]: encoded 136895 frames, 4.65 fps, 1423.05 kb/s

Скриншоты


ЗалилАудио#1: 48 kHz, AC3 Dolby Digital, 3/2 (L,C,R,l,r) + LFE ch, 384.00 kbps |О фильме: В фильме рассказывается об отважном курьере, пытающемся доставить чемоданчик некоему криминальному авторитету, местонахождение которого никому не известно. Выполнить эту миссию курьеру всячески мешают коррумпированные полицейские и представители преступного мира, преследующие его по всей стране.

Blu-Ray Remux]
Перевод: Профессиональный (многоголосый закадровый)
Навигация по главам: Есть

Формат: MKV
В ролях: Джеффри Дин Морган, Джози Хо, Тиль Швайгер, Мигель Феррер, Лили Тейлор, Микки Рурк, Марк Марголис, Айла Ходжич, Дэвид Дженсен, Том Проктер, Клайд Джонс, Майкл Арата, Калеб Микаэльсон, Элтон ЛеБланк, Синтия ЛеБланк, Адам Сибли, Изабелла Аней Хьюит, Джон С. Клейн, Брок Патрик Кауфман, Роберт Даутэт, Фелдер Шарбоннэ, Марк Крутов, Лили Соланж Хьюит, Эшли Мартин, Эндрю Асевес, Эдвард Дж. Клер, Лари Лав Долли, Джон Родригез, Энди Симс, Джеймс Лесли Тейлор

США / Films In Motion
Жанр: Боевик, триллер, криминал
Режиссер: Хани Абу-Ассад

2011
Производство:potroks Оценка9 из 10 (1 голосов, самая низкая оценка - 9, самая высокая - 9) КатегорияЗарубежные фильмы Раздают0 Качают0 Сидер замечен14-06-2019 0:19:11 (7 часов назад) Добавлен16-05-2013 10:09:40 (74 месяца назад) Размер1.46 GB (1565078037 Bytes)Год выпуска:Бюджет: $15 500 000



Аудио#2: 48 kHz, AC3 Dolby Digital, 3/2 (L,C,R,l,r) + LFE ch, 384.00 kbps |

Если у вас возникли проблемы с закачкой Курьер / The Courier (2011) BDRip-AVC от potroks, перейдите по ссылке - там вы найдете решение своей проблемы.

Категория: Зарубежные фильмы

 

Скачать Курьер / The Courier (2011) BDRip-AVC от potroks бесплатно без регистрации

 

Информация
Посетители, находящиеся в группе Гости, не могут оставлять комментарии к данной публикации.
 
 
Скачать Курьер / The Courier (2011) BDRip-AVC от potroks бесплатно без регистрацииCopyright © 2019 .