Скачать Джульетта / Julieta (2016) BDRip-AVC от ExKinoRay | iTunes бесплатно без регистрации






Информация о фильме
Перевод: Дублированный | iTunes
Оригинальное название: Julieta
Выпущено: Испания, Canal+ France, Televisión Española
Продолжительность: 01:38:37
Vladislav71 ОценкаНикто ещё не поставил оценку КатегорияЗарубежные фильмы Раздают1 Качают0 Сидер замечен13-06-2019 19:19:12 (12 часа назад) Добавлен05-02-2018 20:05:04 (16 месяцев назад) Размер745.06 MB (781247908 Bytes)Релиз от: ЗалилЗвук: Русский (AАС, 2 ch, 72 Кбит/с)

MediaInfoФормат : Matroska
Версия формата : Version 4 / Version 2
Размер файла : 745 Мбайт
Продолжительность : 1 ч. 38 м.
Общий поток : 1056 Кбит/сек
Название фильма : Dzhuletta.2016.x264.BDRip.(AVC).ExKinoRay
Дата кодирования : UTC 2018-02-04 10:28:47
Программа кодирования : mkvmerge v17.0.0 ('Be Ur Friend') 64-bit
Библиотека кодирования : libebml v1.3.5 + libmatroska v1.4.8

Видео
Идентификатор : 1
Формат : AVC
Формат/Информация : Advanced Video Codec
Профиль формата : High@L4.1
Параметр CABAC формата : Да
Параметр ReFrames формата : 10 кадров
Идентификатор кодека : V_MPEG4/ISO/AVC
Продолжительность : 1 ч. 38 м.
Битрейт : 985 Кбит/сек
Ширина : 720 пикселей
Высота : 388 пикселей
Соотношение сторон : 1,85:1
Режим частоты кадров : Постоянный
Частота кадров : 24,000 кадра/сек
Цветовое пространство : YUV
Субдискретизация насыщенности : 4:2:0
Битовая глубина : 8 бит
Тип развёртки : Прогрессивная
Бит/(Пиксели*Кадры) : 0.147
Размер потока : 693 Мбайт (93%)
Заголовок : ExKinoRay
Библиотека кодирования : x264 core 146 r2538 121396c
Настройки программы : cabac=1 / ref=10 / deblock=1:-2:-2 / analyse=0x3:0x113 / me=umh / subme=11 / psy=1 / psy_rd=1.00:0.00 / mixed_ref=1 / me_range=32 / chroma_me=0 / trellis=2 / 8x8dct=1 / cqm=0 / deadzone=21,11 / fast_pskip=0 / chroma_qp_offset=-3 / threads=6 / lookahead_threads=1 / sliced_threads=0 / nr=0 / decimate=0 / interlaced=0 / bluray_compat=0 / constrained_intra=0 / bframes=10 / b_pyramid=2 / b_adapt=2 / b_bias=0 / direct=3 / weightb=1 / open_gop=0 / weightp=2 / keyint=240 / keyint_min=23 / scenecut=40 / intra_refresh=0 / rc_lookahead=40 / rc=2pass / mbtree=0 / bitrate=985 / ratetol=1.0 / qcomp=0.60 / qpmin=0 / qpmax=51 / qpstep=4 / cplxblur=20.0 / qblur=0.5 / vbv_maxrate=50000 / vbv_bufsize=62500 / nal_hrd=none / filler=0 / ip_ratio=1.40 / pb_ratio=1.30 / aq=2:1.00
Язык : English
Default : Да
Forced : Нет

Аудио
Идентификатор : 2
Формат : AAC
Формат/Информация : Advanced Audio Codec
Профиль формата : LC
Идентификатор кодека : A_AAC
Продолжительность : 1 ч. 38 м.
Битрейт : 72,0 Кбит/сек
Каналы : 2 канала
Расположение каналов : Front: L R
Частота : 48,0 КГц
Частота кадров : 46,875 кадров/сек (1024 spf)
Метод сжатия : С потерями
Задержка видео : 9 мс.
Размер потока : 50,6 Мбайт (7%)
Язык : Russian
Default : Да
Forced : Нет

Меню
00:00:00.000 : en:Chapter 01
00:11:08.375 : en:Chapter 02
00:25:18.458 : en:Chapter 03
00:38:46.041 : en:Chapter 04
00:50:14.083 : en:Chapter 05
01:02:45.125 : en:Chapter 06
01:15:14.375 : en:Chapter 07
01:28:20.541 : en:Chapter 08
Скриншоты

Кодек: H.264
Год выхода: 2016
В ролях: Адриана Угарте, Росси де Пальма, Эмма Суарес, Мишель Хеннер, Инма Куэста, Даниэль Грао, Дарио Грандинетти, Натали Поса, Агустин Альмодовар
Жанр: Драма, мелодрама
Видео: MPEG-4 AVC, 985 Кбит/с, 720x388
Качество: BDRip (AVC)
О фильме: Дочь Джульетты таинственным образом исчезает. В попытке отыскать ее следы она возвращается в Мадрид и вспоминает свою бурную юность, любовь и страшную трагедию, которая отдалила ее от дочери. Призрак прошлого терзает ее в настоящем.


Название: Джульетта
Режиссер: Педро Альмодовар

Если у вас возникли проблемы с закачкой Джульетта / Julieta (2016) BDRip-AVC от ExKinoRay | iTunes, перейдите по ссылке - там вы найдете решение своей проблемы.

Категория: Зарубежные фильмы

 

Скачать Джульетта / Julieta (2016) BDRip-AVC от ExKinoRay | iTunes бесплатно без регистрации

 

Информация
Посетители, находящиеся в группе Гости, не могут оставлять комментарии к данной публикации.
 
 
Скачать Джульетта / Julieta (2016) BDRip-AVC от ExKinoRay | iTunes бесплатно без регистрацииCopyright © 2019 .