Скачать Убийство в Восточном экспрессе / Murder on the Orient Express (2017) BDRip-AVC от qqss44 & MegaPeer | Лицензия бесплатно без регистрации





Формат: MKV, BDRip-AVC
Название: Убийство в Восточном экспрессе
Релиз от:

Скриншоты

МИ
Общее
Уникальный идентификатор : 210395589949518891938390101836331026390 (0x9E48B778AC62AB88897C8B9DDE0507D6)
Полное имя : H:Murder.On.The.Orient.Express.(2017).BDRip-AVC.MegaPeer.(qqss44).mkv
Формат : Matroska
Версия формата : Version 2
Размер файла : 1,95 Гбайт
Продолжительность : 1 ч. 53 м.
Общий поток : 2450 Кбит/сек
Название фильма : Murder.On.The.Orient.Express.(2017).BDRip.MegaPeer.(qqss44)
Дата кодирования : UTC 2018-03-04 11:08:00
Программа кодирования : mkvmerge v5.8.0 ('No Sleep / Pillow') built on Sep 2 2012 15:37:04
Библиотека кодирования : libebml v1.2.3 + libmatroska v1.3.0

Видео
Идентификатор : 1
Формат : AVC
Формат/Информация : Advanced Video Codec
Профиль формата : High@L4.1
Параметр CABAC формата : Да
Параметр ReFrames формата : 11 кадров
Идентификатор кодека : V_MPEG4/ISO/AVC
Продолжительность : 1 ч. 53 м.
Битрейт : 2000 Кбит/сек
Ширина : 1024 пикселя
Высота : 428 пикселей
Соотношение сторон : 2,40:1
Режим частоты кадров : Постоянный
Частота кадров : 23,976 (24000/1001) кадра/сек
Цветовое пространство : YUV
Субдискретизация насыщенности : 4:2:0
Битовая глубина : 8 бит
Тип развёртки : Прогрессивная
Бит/(Пиксели*Кадры) : 0.190
Размер потока : 1,55 Гбайт (80%)
Библиотека кодирования : x264 core 152 r2851 ba24899
Настройки программы : cabac=1 / ref=11 / deblock=1:-3:-3 / analyse=0x3:0x113 / me=umh / subme=11 / psy=1 / psy_rd=1.00:0.00 / mixed_ref=1 / me_range=32 / chroma_me=1 / trellis=2 / 8x8dct=1 / cqm=0 / deadzone=21,11 / fast_pskip=0 / chroma_qp_offset=-2 / threads=12 / lookahead_threads=3 / sliced_threads=0 / nr=0 / decimate=0 / interlaced=0 / bluray_compat=0 / constrained_intra=0 / bframes=10 / b_pyramid=2 / b_adapt=2 / b_bias=0 / direct=3 / weightb=1 / open_gop=0 / weightp=2 / keyint=240 / keyint_min=23 / scenecut=40 / intra_refresh=0 / rc_lookahead=40 / rc=2pass / mbtree=0 / bitrate=2000 / ratetol=1.0 / qcomp=0.70 / qpmin=0 / qpmax=69 / qpstep=4 / cplxblur=20.0 / qblur=0.5 / vbv_maxrate=50000 / vbv_bufsize=62500 / nal_hrd=none / filler=0 / ip_ratio=1.40 / pb_ratio=1.30 / aq=3:0.80
Язык : English
Default : Да
Forced : Нет

Аудио
Идентификатор : 2
Формат : AC-3
Формат/Информация : Audio Coding 3
Расширение режима : CM (complete main)
Параметр Endianness формата : Big
Идентификатор кодека : A_AC3
Продолжительность : 1 ч. 53 м.
Вид битрейта : Постоянный
Битрейт : 448 Кбит/сек
Каналы : 6 каналов
Расположение каналов : Front: L C R, Side: L R, LFE
Частота : 48,0 КГц
Частота кадров : 31,250 кадров/сек (1536 spf)
Метод сжатия : С потерями
Размер потока : 365 Мбайт (18%)
Язык : Russian
Default : Да
Forced : Нет

Меню
00:00:00.000 : en:Chapter 01
00:03:06.144 : en:Chapter 02
00:06:42.193 : en:Chapter 03
00:11:44.745 : en:Chapter 04
00:18:26.188 : en:Chapter 05
00:24:53.658 : en:Chapter 06
00:33:14.158 : en:Chapter 07
00:37:47.515 : en:Chapter 08
00:43:16.510 : en:Chapter 09
00:46:24.865 : en:Chapter 10
00:51:23.580 : en:Chapter 11
00:55:52.015 : en:Chapter 12
01:00:03.182 : en:Chapter 13
01:05:39.226 : en:Chapter 14
01:10:40.152 : en:Chapter 15
01:14:17.578 : en:Chapter 16
01:18:05.055 : en:Chapter 17
01:21:12.284 : en:Chapter 18
01:24:39.365 : en:Chapter 19
01:28:37.854 : en:Chapter 20
01:32:28.376 : en:Chapter 21
01:37:04.652 : en:Chapter 22
01:40:30.024 : en:Chapter 23
01:46:49.903 : en:Chapter 24



ЗалилВ ролях: Кеннет Брана, Пенелопа Крус, Уиллем Дефо, Джуди Денч, Джонни Депп, Джош Гэд, Дерек Джекоби, Лесли Одом мл., Мишель Пфайффер, Дэйзи Ридли

Год выпуска: 2017
Студия: 20th Century Fox Film Corporation, Genre Films, Kinberg Genre, Latina Pictures...
Жанр: Драма, криминал, детектив
Перевод: Дублированный |Субтитры: русские форсированные (стилизованные, анимированные, вшиты в видео)
Видео: MPEG-4 AVC, 2000 Кбит/с, 1024x428
Оригинальное название: Murder on the Orient Express
qqss44 ОценкаНикто ещё не поставил оценку КатегорияЗарубежные фильмы Раздают11 Качают1 Сидер замечен14-06-2019 6:19:11 (4 минуты назад) Добавлен04-03-2018 15:35:56 (16 месяцев назад) Размер1.95 GB (2093613689 Bytes)Режиссер: Кеннет Брана
О фильме:
Путешествие на одном из самых роскошных поездов Европы неожиданно превращается в одну из самых стильных и захватывающих загадок в истории. Фильм рассказывает историю тринадцати пассажиров поезда, каждый из которых находится под подозрением. И только сыщик должен как можно быстрее разгадать головоломку, прежде чем преступник нанесет новый удар.



Анонсы 1080p от qqss44

Информация о фильме
Страна: США, Великобритания, Мальта, Канада
Aудио#1: [RUS] AC3 | 48 KHz | 5.1 (Front: L С R Side: L R) + LFE | ~448 kbps
Продолжительность: 01:53:55
Лицензия

Если у вас возникли проблемы с закачкой Убийство в Восточном экспрессе / Murder on the Orient Express (2017) BDRip-AVC от qqss44 & MegaPeer | Лицензия, перейдите по ссылке - там вы найдете решение своей проблемы.

Категория: Зарубежные фильмы

 

Скачать Убийство в Восточном экспрессе / Murder on the Orient Express (2017) BDRip-AVC от qqss44 & MegaPeer | Лицензия бесплатно без регистрации

 

Информация
Посетители, находящиеся в группе Гости, не могут оставлять комментарии к данной публикации.
 
 
Скачать Убийство в Восточном экспрессе / Murder on the Orient Express (2017) BDRip-AVC от qqss44 & MegaPeer | Лицензия бесплатно без регистрацииCopyright © 2019 .