Скачать Склока / La Zizanie (1978) DVDRip-AVC от New-Team бесплатно без регистрации





В ролях: Луи де Фюнес / Louis De Funès, Анни Жирардо / Annie Girardot, Жак Франсуа / Jacques François, Жан-Жак Моро / Jean-Jacques Moreau, Морис Риш / Maurice Risch, Жорж Стаке / Georges Staquet, Жюльен Гийомар / Julien Guiomar, Женевьев Фонтанель / Geneviève Fontanel, Даниэль Буланже / Daniel Boulanger, Марио Давид / Mario David, Таня Лопер / Tanya Lopert и др.

contineNt ОценкаНикто ещё не поставил оценку КатегорияЗарубежные фильмы Раздают1 Качают0 Сидер замечен22-05-2019 21:19:11 (22 дня назад) Добавлен07-03-2014 15:06:20 (64 месяца назад) Размер1.46 GB (1564403317 Bytes)Видео кодек: H.264
Исходник DVD5]
АНОНСЫ МОИХ РИПОВ! ЛУЧШИЕ ФИЛЬМЫ И СЕРИАЛЫ ВСЕЙ ПЛАНЕТЫ! Подпишись :)

Аудио #1: 48 kHz, AC3 Dolby Digital, 2/0 (L,R) ch, ~192 kbps | НТВ
Формат: MKV
Качество: DVDRip-AVC [Перевод: Профессиональный (многоголосый закадровый) НТВ + Профессиональный (многоголосый закадровый) (Кинокомпания "Селена Интернешнл"
по заказу ТРК ОРТ)
Год выпуска: 1978
Режиссер: Клод Зиди / Claude Zidi

Жанр: Комедия
Оригинальная аудиодорожка: нет

Аудио кодек: AC3
Страна: Франция
Аудио #2: 48 kHz, AC3 Dolby Digital, 2/0 (L,R) ch, ~192 kbps | ОРТ
Видео: 704x438@1022x438 (2.35:1), 25 fps, H264 ~ 1 872 Kbps avg, 0.243 bit/pixel
Продолжительность: 01:32:23
Cубтитры: нет
Склока / La Zizanie

Описание: "Чистящие товары" - Добре ля Каз. Это завод, которым владеет месье Гийом Добре (Луи де Фюнес). Рядом с заводом находится его шикарный, громадный особняк с оранжереей и огородом на 200 кв. метров, за которыми следит его жена Бернадетт Добре (Анни Жирардо), урожденная ля Каз.
Гийом готовится к важной встрече с японцами. У него есть новый суперочиститель СХ-22, который за несколько секунд уничтожает пыль, дымы, туман и вредные частицы в радиусе 4-х километров. Японцы были приятно удивлены, когда Гиойм продемонстрировал этот прибор в работе. Кроме того, были показаны ветряной двигатель с аккумулятором и солнечная печь. Осталось дело за малым: подписать контракт...



Раздача от:
Скриншоты
Резервные скриншоты
MID:Мои рипыНовая папкаLa.Zizanie.dvdrip-avc.dexter_lex.mkv
General
Unique ID : 188661043193965814964412154130579268835 (0x8DEECB9505DDDB07AA56CC41443324E3)
Complete name : D:Мои рипыНовая папкаLa.Zizanie.dvdrip-avc.dexter_lex.mkv
Format : Matroska
Format version : Version 4 / Version 2
File size : 1.46 GiB
Duration : 1h 32mn
Overall bit rate : 2 258 Kbps
Movie name : New-Team / dexter lex
Encoded date : UTC 2014-03-02 14:25:29
Writing application : mkvmerge v6.1.0 ('Old Devil') built on Mar 4 2013 09:10:42
Writing library : libebml v1.3.0 + libmatroska v1.4.0
Video #1
ID : 1
Format : AVC
Format/Info : Advanced Video Codec
Format profile : High@L4.1
Format settings, CABAC : Yes
Format settings, ReFrames : 11 frames
Codec ID : V_MPEG4/ISO/AVC
Duration : 1h 32mn
Bit rate : 1 872 Kbps
Width : 704 pixels
Height : 438 pixels
Display aspect ratio : 2.35:1
Original display aspect ratio : 2.35:1
Frame rate : 25.000 fps
Color space : YUV
Chroma subsampling : 4:2:0
Bit depth : 8 bits
Scan type : Progressive
Bits/(Pixel*Frame) : 0.243
Stream size : 1.18 GiB (81%)
Writing library : x264 core 130 r2273 b3065e6
Encoding settings : cabac=1 / ref=11 / deblock=1:-2:-1 / analyse=0x3:0x113 / me=umh / subme=10 / psy=1 / psy_rd=1.00:0.20 / mixed_ref=1 / me_range=48 / chroma_me=1 / trellis=2 / 8x8dct=1 / cqm=0 / deadzone=21,11 / fast_pskip=0 / chroma_qp_offset=-3 / threads=6 / lookahead_threads=1 / sliced_threads=0 / nr=0 / decimate=0 / interlaced=0 / bluray_compat=0 / constrained_intra=0 / bframes=8 / b_pyramid=2 / b_adapt=2 / b_bias=0 / direct=3 / weightb=1 / open_gop=0 / weightp=2 / keyint=250 / keyint_min=25 / scenecut=40 / intra_refresh=0 / rc_lookahead=60 / rc=2pass / mbtree=1 / bitrate=1872 / ratetol=1.0 / qcomp=0.60 / qpmin=0 / qpmax=69 / qpstep=4 / cplxblur=20.0 / qblur=0.5 / ip_ratio=1.40 / aq=1:1.00
Language : English
Default : Yes
Forced : No
Audio #2
ID : 2
Format : AC-3
Format/Info : Audio Coding 3
Mode extension : CM (complete main)
Codec ID : A_AC3
Duration : 1h 32mn
Bit rate mode : Constant
Bit rate : 192 Kbps
Channel(s) : 2 channels
Channel positions : Front: L R
Sampling rate : 48.0 KHz
Bit depth : 16 bits
Compression mode : Lossy
Stream size : 127 MiB (9%)
Title : MVO НТВ
Language : Russian
Default : Yes
Forced : No
Audio #3
ID : 3
Format : AC-3
Format/Info : Audio Coding 3
Mode extension : CM (complete main)
Codec ID : A_AC3
Duration : 1h 32mn
Bit rate mode : Constant
Bit rate : 192 Kbps
Channel(s) : 2 channels
Channel positions : Front: L R
Sampling rate : 48.0 KHz
Bit depth : 16 bits
Compression mode : Lossy
Stream size : 127 MiB (9%)
Title : MVO Селена Интернешнл
Language : Russian
Default : No
Forced : No
Залил

Если у вас возникли проблемы с закачкой Склока / La Zizanie (1978) DVDRip-AVC от New-Team, перейдите по ссылке - там вы найдете решение своей проблемы.

Категория: Зарубежные фильмы

 

Скачать Склока / La Zizanie (1978) DVDRip-AVC от New-Team бесплатно без регистрации

 

Информация
Посетители, находящиеся в группе Гости, не могут оставлять комментарии к данной публикации.
 
 
Скачать Склока / La Zizanie (1978) DVDRip-AVC от New-Team бесплатно без регистрацииCopyright © 2019 .