Скачать Темный рыцарь: Возрождение легенды / The Dark Knight Rises (2012) HDRip-AVC | D | IMAX бесплатно без регистрации





Продолжительность: 02:44:33
Видео: 720x406 (16:9), 23.976 fps, x264 ~580 kbps avg, 0.083 bit/pixel
Перевод: Дублированный (Лицензия BD-EUR)
Субтитры: Русские (форс,полные), Украинские (форсированные), Английские
Аудио: 48.0 KHz, AAC-HE, 2 ch, 56 Kbps avg
Кодек: x264
Качество: HDRip-AVC (Исх | BDRip 1080p)
Релиз от:
«И разгорится пламя»
Информация о фильме
Оригинальное название: The Dark Knight Rises
О фильме: Восемь лет назад Бэтмен растворился в ночи, превратившись из героя в беглеца. Приняв на себя вину за смерть прокурора Харви Дента, Темный рыцарь пожертвовал всем. Вместе с комиссаром Гордоном они решили, что так будет лучше для всех. Пока преступность была раздавлена антикриминальным актом Дента, ложь действовала.

Но с появлением хитрой воровки с загадочным прошлым всё меняется. Тем не менее, еще опаснее становится появление террориста Бэйна, чье лицо закрыто маской. Он разворачивает в Готэме чудовищную деятельность, вынуждая Брюса Уэйна выйти из импровизированного изгнания. Однако даже надев свой костюм, Бэтмен может проиграть Бэйну.

Примечание: В фильме присутствуют IMAX-вставки, которые имеют аспект 16:9, в отличии от остальных сцен фильма 2.40:1. Потому где-то нет, а где-то есть черные полосы. Без них никак.

Название: Темный рыцарь: Возрождение легенды
Автор рипа: Sergei91 (student05)



MediaInfo ▼Общее
Уникальный идентификатор : 229407801425848149290864054004369485558 (0xAC9655DE5C646863930400A2E79A6EF6)
Полное имя : D:Темный.рыцарь.Возрождение.легенды.(2012).HDRip-AVC.IMAX.mkv
Формат : Matroska
Версия формата : Version 4 / Version 2
Размер файла : 751 Мбайт
Продолжительность : 2 ч. 44 м.
Общий поток : 638 Кбит/сек
Название фильма : -=rip by Sergei91=- (student05)
Дата кодирования : UTC 2016-09-28 09:21:12
Программа кодирования : mkvmerge v9.1.0 ('Little Earthquakes') 32bit
Библиотека кодирования : libebml v1.3.3 + libmatroska v1.4.4
Обложка : Yes
Attachments : cover.jpg

Видео
Идентификатор : 1
Формат : AVC
Формат/Информация : Advanced Video Codec
Профиль формата : High@L4.1
Параметр CABAC формата : Да
Параметр ReFrames формата : 13 кадров
Идентификатор кодека : V_MPEG4/ISO/AVC
Продолжительность : 2 ч. 44 м.
Битрейт : 580 Кбит/сек
Ширина : 720 пикселей
Высота : 406 пикселей
Соотношение сторон : 16:9
Режим частоты кадров : Постоянный
Частота кадров : 23,976 (24000/1001) кадра/сек
Частота кадров в оригинале : 23,976 (23976/1000) кадра/сек
Цветовое пространство : YUV
Субдискретизация насыщенности : 4:2:0
Битовая глубина : 8 бит
Тип развёртки : Прогрессивная
Бит/(Пиксели*Кадры) : 0.083
Размер потока : 683 Мбайт (91%)
Заголовок : The Dark Knight Rises
Библиотека кодирования : x264 core 146 r2538 121396c
Настройки программы : cabac=1 / ref=13 / deblock=1:-1:-1 / analyse=0x3:0x113 / me=umh / subme=10 / psy=1 / psy_rd=1.00:0.15 / mixed_ref=1 / me_range=32 / chroma_me=1 / trellis=2 / 8x8dct=1 / cqm=0 / deadzone=21,11 / fast_pskip=1 / chroma_qp_offset=-3 / threads=2 / lookahead_threads=1 / sliced_threads=0 / nr=0 / decimate=0 / interlaced=0 / bluray_compat=0 / constrained_intra=0 / bframes=12 / b_pyramid=2 / b_adapt=2 / b_bias=0 / direct=3 / weightb=1 / open_gop=0 / weightp=2 / keyint=240 / keyint_min=23 / scenecut=40 / intra_refresh=0 / rc_lookahead=40 / rc=2pass / mbtree=0 / bitrate=580 / ratetol=1.0 / qcomp=0.60 / qpmin=0 / qpmax=69 / qpstep=4 / cplxblur=20.0 / qblur=0.5 / vbv_maxrate=14000 / vbv_bufsize=14000 / nal_hrd=none / filler=0 / ip_ratio=1.40 / pb_ratio=1.30 / aq=1:1.00
Язык : English
Default : Да
Forced : Нет

Аудио
Идентификатор : 2
Формат : AAC
Формат/Информация : Advanced Audio Codec
Профиль формата : HE-AAC / LC
Идентификатор кодека : A_AAC
Продолжительность : 2 ч. 44 м.
Битрейт : 56,0 Кбит/сек
Каналы : 2 канала
Расположение каналов : Front: L R
Частота : 48,0 КГц / 24,0 КГц
Частота кадров : 23,438 кадра/сек (1024 spf)
Метод сжатия : С потерями
Задержка видео : 31 мс.
Размер потока : 65,9 Мбайт (9%)
Заголовок : Дубляж (56,0 Кбит/сек)
Язык : Russian
Default : Да
Forced : Нет

Текст #1
Идентификатор : 3
Формат : UTF-8
Идентификатор кодека : S_TEXT/UTF8
Идентификатор кодека/Информация : UTF-8 Plain Text
Продолжительность : 1 ч. 46 м.
Битрейт : 0 бит/сек
Count of elements : 12
Размер потока : 624 байт (0%)
Заголовок : Форсированные
Язык : Russian
Default : Да
Forced : Нет

Текст #2
Идентификатор : 4
Формат : UTF-8
Идентификатор кодека : S_TEXT/UTF8
Идентификатор кодека/Информация : UTF-8 Plain Text
Продолжительность : 2 ч. 43 м.
Битрейт : 63 бит/сек
Count of elements : 1841
Размер потока : 76,3 Кбайт (0%)
Заголовок : Полные
Язык : Russian
Default : Нет
Forced : Нет

Текст #3
Идентификатор : 5
Формат : UTF-8
Идентификатор кодека : S_TEXT/UTF8
Идентификатор кодека/Информация : UTF-8 Plain Text
Продолжительность : 1 ч. 46 м.
Битрейт : 0 бит/сек
Count of elements : 12
Размер потока : 616 байт (0%)
Заголовок : форсированные
Язык : Ukrainian
Default : Нет
Forced : Нет

Текст #4
Идентификатор : 6
Формат : UTF-8
Идентификатор кодека : S_TEXT/UTF8
Идентификатор кодека/Информация : UTF-8 Plain Text
Продолжительность : 2 ч. 34 м.
Битрейт : 73 бит/сек
Count of elements : 1911
Размер потока : 82,5 Кбайт (0%)
Заголовок : Full
Язык : English
Default : Нет
Forced : Нет

Меню
00:00:00.000 : en:Chapter 01
00:03:33.338 : en:Chapter 02
00:08:00.688 : en:Chapter 03
00:10:28.628 : en:Chapter 04
00:13:58.045 : en:Chapter 05
00:17:02.021 : en:Chapter 06
00:20:16.089 : en:Chapter 07
00:22:11.330 : en:Chapter 08
00:26:37.887 : en:Chapter 09
00:30:32.038 : en:Chapter 10
00:34:29.776 : en:Chapter 11
00:36:00.992 : en:Chapter 12
00:38:18.087 : en:Chapter 13
00:40:37.101 : en:Chapter 14
00:45:53.792 : en:Chapter 15
00:48:53.847 : en:Chapter 16
00:51:58.156 : en:Chapter 17
00:54:43.113 : en:Chapter 18
00:57:51.426 : en:Chapter 19
01:00:48.186 : en:Chapter 20
01:03:26.594 : en:Chapter 21
01:07:09.567 : en:Chapter 22
01:09:43.596 : en:Chapter 23
01:13:11.470 : en:Chapter 24
01:15:31.860 : en:Chapter 25
01:17:27.726 : en:Chapter 26
01:19:30.098 : en:Chapter 27
01:24:50.710 : en:Chapter 28
01:26:58.254 : en:Chapter 29
01:31:04.250 : en:Chapter 30
01:34:03.679 : en:Chapter 31
01:37:33.180 : en:Chapter 32
01:41:54.817 : en:Chapter 33
01:44:52.995 : en:Chapter 34
01:47:19.808 : en:Chapter 35
01:51:29.766 : en:Chapter 36
01:56:42.745 : en:Chapter 37
02:00:12.413 : en:Chapter 38
02:02:34.972 : en:Chapter 39
02:10:31.907 : en:Chapter 40
02:11:35.360 : en:Chapter 41
02:13:35.360 : en:Chapter 42
02:15:35.360 : en:Chapter 43
02:18:35.360 : en:Chapter 44
02:20:35.360 : en:Chapter 45
02:22:35.360 : en:Chapter 46
02:25:35.360 : en:Chapter 47
02:27:35.360 : en:Chapter 48
02:29:35.360 : en:Chapter 49
02:32:35.360 : en:Chapter 50
02:35:35.360 : en:Chapter 51
02:37:35.360 : en:Chapter 52
02:40:35.360 : en:Chapter 53
02:42:35.360 : en:Chapter 54
02:44:35.360 : en:Chapter 55Log x264 ▼avs [info]: 720x406p 1:1 @ 2997/125 fps (cfr)
x264 [info]: using SAR=1/1
x264 [info]: using cpu capabilities: MMX2 SSE2 SSE3 Cache64
x264 [info]: profile High, level 4.1

x264 [info]: frame I:2174 Avg QP:16.14 size: 25591
x264 [info]: frame P:53133 Avg QP:20.84 size: 6487
x264 [info]: frame B:181406 Avg QP:21.90 size: 1739
x264 [info]: consecutive B-frames: 2.3% 3.3% 7.9% 30.7% 15.6% 22.2% 6.3% 8.6% 1.4% 0.5% 0.3% 0.2% 0.6%
x264 [info]: mb I I16..4: 17.1% 59.6% 23.3%
x264 [info]: mb P I16..4: 1.5% 6.6% 1.3% P16..4: 37.4% 18.4% 9.7% 0.0% 0.0% skip:25.1%
x264 [info]: mb B I16..4: 0.1% 0.5% 0.1% B16..8: 36.2% 6.5% 1.4% direct: 1.9% skip:53.4% L0:42.9% L1:49.6% BI: 7.5%
x264 [info]: 8x8 transform intra:68.1% inter:61.0%
x264 [info]: direct mvs spatial:94.1% temporal:5.9%
x264 [info]: coded y,uvDC,uvAC intra: 68.7% 54.7% 27.2% inter: 9.0% 5.4% 1.7%
x264 [info]: i16 v,h,dc,p: 35% 22% 11% 31%
x264 [info]: i8 v,h,dc,ddl,ddr,vr,hd,vl,hu: 15% 10% 8% 8% 12% 12% 12% 10% 12%
x264 [info]: i4 v,h,dc,ddl,ddr,vr,hd,vl,hu: 15% 12% 5% 9% 13% 12% 12% 10% 13%
x264 [info]: i8c dc,h,v,p: 39% 29% 20% 12%
x264 [info]: Weighted P-Frames: Y:3.9% UV:1.1%
x264 [info]: ref P L0: 52.5% 11.4% 14.4% 5.4% 4.1% 3.1% 2.6% 1.4% 1.2% 1.1% 1.0% 0.9% 0.9% 0.1% 0.0%
x264 [info]: ref B L0: 75.7% 10.6% 5.1% 2.3% 1.7% 1.3% 1.1% 0.6% 0.5% 0.5% 0.3% 0.2%
x264 [info]: ref B L1: 92.5% 7.5%
x264 [info]: kb/s:580.02

x264 [total]: encoded 236713 frames, 4.03 fps, 580.02 kb/s ЗалилСтрана: США, Великобритания
student05 Оценка9.8 из 10 (4 голосов, самая низкая оценка - 9, самая высокая - 10) КатегорияЗарубежные фильмы Раздают2 Качают2 Сидер замечен14-06-2019 3:19:11 (4 минуты назад) Добавлен21-01-2017 15:23:00 (29 месяцев назад) Размер751.07 MB (787553670 Bytes)В ролях: Кристиан Бэйл, Том Харди, Энн Хэтэуэй, Джозеф Гордон-Левитт, Марион Котийяр, Гари Олдман, Морган Фриман, Майкл Кейн, Мэтью Модайн, Бен Мендельсон

Жанр: фантастика, боевик, триллер, драма, криминал
Режиссер: Кристофер Нолан
Год выхода: 2012

Если у вас возникли проблемы с закачкой Темный рыцарь: Возрождение легенды / The Dark Knight Rises (2012) HDRip-AVC | D | IMAX, перейдите по ссылке - там вы найдете решение своей проблемы.

Категория: Зарубежные фильмы

 

Скачать Темный рыцарь: Возрождение легенды / The Dark Knight Rises (2012) HDRip-AVC | D | IMAX бесплатно без регистрации

 

Информация
Посетители, находящиеся в группе Гости, не могут оставлять комментарии к данной публикации.
 
 
Скачать Темный рыцарь: Возрождение легенды / The Dark Knight Rises (2012) HDRip-AVC | D | IMAX бесплатно без регистрацииCopyright © 2019 .