Скачать 60 дней (1940) DVDRip от New-Team бесплатно без регистрации





Описание:
История о том, как эксцентричного молодого профессора отправили на военные сборы, а он неожиданно проявил стратегический талант и «суворовскую» решительность…



Год выпуска: 1940
Качество видео:Страна: СССР
Источник:В ролях:
Николай Черкасов, Борис Жуковский, Зоя Фёдорова, Валентин Янцат, Дж. Любимов, Иван Назаров, Александр Янкевский, Евгения Голынчик, Анна Сергеева...

Режиссер: Михаил Шапиро

DVD5 R5
DVDRip
Не требуется
Продолжительность: 1:08:50

Оригинальная аудиодорожка: русский

Раздача от:
MediaInfo
Общее
Полное имя : 60.dney.1940.DVDRip_[New-team]_by_AVP_Studio.avi
Формат : AVI
Формат/Информация : Audio Video Interleave
Размер файла : 1,09 Гбайт
Продолжительность : 1 ч. 8 м.
Общий поток : 2274 Кбит/сек
Программа кодирования : VirtualDubModRus 1.5.10.2 (build 2542/release)
Библиотека кодирования : VirtualDubMod build 2542/release

Видео
Идентификатор : 0
Формат : MPEG-4 Visual
Профиль формата : Advanced Simple@L5
Параметр BVOP формата : 1
Параметр QPel формата : Нет
Параметр GMC формата : Без точки перехода
Параметр матрицы формата : Выборочная
Идентификатор кодека : XVID
Идентификатор кодека/Подсказка : XviD
Продолжительность : 1 ч. 8 м.
Битрейт : 2072 Кбит/сек
Ширина : 704 пикселя
Высота : 528 пикселей
Соотношение сторон : 4:3
Частота кадров : 25,000 кадров/сек
Цветовое пространство : YUV
Субдискретизация насыщенности : 4:2:0
Битовая глубина : 8 бит
Тип развёртки : Прогрессивная
Метод сжатия : С потерями
Бит/(Пиксели*Кадры) : 0.223
Размер потока : 1020 Мбайт (91%)
Библиотека кодирования : XviD 73

Аудио
Идентификатор : 1
Формат : AC-3
Формат/Информация : Audio Coding 3
Расширение режима : CM (complete main)
Параметр Endianness формата : Big
Идентификатор кодека : 2000
Продолжительность : 1 ч. 8 м.
Вид битрейта : Постоянный
Битрейт : 192 Кбит/сек
Каналы : 2 канала
Расположение каналов : Front: L R
Частота : 48,0 КГц
Битовая глубина : 16 бит
Метод сжатия : С потерями
Размер потока : 94,5 Мбайт (8%)
Выравнивание : Разделение по промежуткам
Продолжительность промежутка : 40 мс. (1,00 видеокадр)
Время предзагрузки промежутка : 500 мс

Скриншоты

ЗалилПеревод:Жанр: комедия
AVPStudio ОценкаНикто ещё не поставил оценку КатегорияНаши фильмы Раздают0 Качают0 Сидер замечен04-06-2019 22:19:13 (9 дней назад) Добавлен14-12-2014 18:22:55 (55 месяцев назад) Размер1.09 GB (1174122496 Bytes)Формат видео: AVI

Виде: 704x528 (4:3), 25 fps, XviD ~ 2072 kbps avg, 0.223 bit/pixel
Аудио: 48 kHz, Dolby Digital AC3 2.0, 192 kbps

Cубтитры: нет
Производство: Ленфильм

Если у вас возникли проблемы с закачкой 60 дней (1940) DVDRip от New-Team, перейдите по ссылке - там вы найдете решение своей проблемы.

Категория: Наши фильмы

 

Скачать 60 дней (1940) DVDRip от New-Team бесплатно без регистрации

 

Информация
Посетители, находящиеся в группе Гости, не могут оставлять комментарии к данной публикации.
 
 
Скачать 60 дней (1940) DVDRip от New-Team бесплатно без регистрацииCopyright © 2019 .