Скачать Воздушные убийцы / Hover (2018) WEBRip | L2 бесплатно без регистрации






Информация о фильме
Оригинальное название: Hover
Перевод: Любительский (двухголосый закадровый) | HiWay Grope

Семпл

MediaInfo:
General
Complete name : D:Hover.2018.WEBRip.HiWayGropeHover.2018.WEBRip.HiWayGrope.avi
Format : AVI
Format/Info : Audio Video Interleave
File size : 1.27 GiB
Duration : 1 h 26 min
Overall bit rate : 2 088 kb/s
Writing application : VirtualDubMod 1.5.10.3 (build 2550/release)
Writing library : VirtualDubMod build 2550/release

Video
ID : 0
Format : MPEG-4 Visual
Format profile : Advanced Simple@L5
Format settings : BVOP1
Format settings, BVOP : 1
Format settings, QPel : No
Format settings, GMC : No warppoints
Format settings, Matrix : Default (MPEG)
Codec ID : XVID
Codec ID/Hint : XviD
Duration : 1 h 26 min
Bit rate : 1 695 kb/s
Width : 720 pixels
Height : 304 pixels
Display aspect ratio : 2.35:1
Frame rate : 23.976 (24000/1001) FPS
Original frame rate : 23.976 (23976/1000) FPS
Color space : YUV
Chroma subsampling : 4:2:0
Bit depth : 8 bits
Scan type : Progressive
Compression mode : Lossy
Bits/(Pixel*Frame) : 0.323
Stream size : 1.03 GiB (81%)
Writing library : XviD 73

Audio
ID : 1
Format : AC-3
Format/Info : Audio Coding 3
Codec ID : 2000
Duration : 1 h 26 min
Bit rate mode : Constant
Bit rate : 384 kb/s
Channel(s) : 6 channels
Channel positions : Front: L C R, Side: L R, LFE
Sampling rate : 48.0 kHz
Frame rate : 31.250 FPS (1536 SPF)
Bit depth : 16 bits
Compression mode : Lossy
Stream size : 239 MiB (18%)
Alignment : Split accross interleaves
Interleave, duration : 42 ms (1.00 video frame)
Interleave, preload duratio : 500 ms
Service kind : Complete Main

Скриншоты


В ролях: Клеопатра Коулмэн, Шэйн Цвинер, Мумс Да Шемер, Фаббианн Терез, Рода Гриффис, Лео Фицпатрик, Бет Грант, Ронда Дентс, Касандра Бандфилд, Д. Хендерсон Бэйкер и другие
Видео: 720x304, 23.976 fps, ~1694 kbps, 0.32 bit/pixel
Год выхода: 2018
Режиссер: Мэтт Остерман
Frontier_guard Оценка1 из 10 (1 голосов, самая низкая оценка - 1, самая высокая - 1) КатегорияЗарубежные фильмы Раздают5 Качают0 Сидер замечен14-06-2019 0:19:11 (4 минуты назад) Добавлен10-07-2018 19:57:38 (11 месяц назад) Размер1.27 GB (1362348032 Bytes)Страна: США, Snowfort Pictures
Реклама: присутствует

Название: Воздушные убийцы
Кодек: XviD
Звук:
Продолжительность: 01:26:59
Жанр: Фантастика
Субтитры: отсутствуют

Релиз от: HiWay Grope ЗалилКачество: WEBRip
Аудио rus: AC3, 48 kHz, 6 ch, 384 Kbps
О фильме:
Во всем мире идет борьба с засухой и вызванным ею голодом. Вот и компания Вастгроу занимается решением данной проблемы, разрабатывая автономные дроны для сельского хозяйства. Однако машины, созданные для того, чтобы помогать людям, оказались воздушными убийцами. Найдется ли тот, кто сможет их остановить?



Если у вас возникли проблемы с закачкой Воздушные убийцы / Hover (2018) WEBRip | L2, перейдите по ссылке - там вы найдете решение своей проблемы.

Категория: Зарубежные фильмы

 

Скачать Воздушные убийцы / Hover (2018) WEBRip | L2 бесплатно без регистрации

 

Информация
Посетители, находящиеся в группе Гости, не могут оставлять комментарии к данной публикации.
 
 
Скачать Воздушные убийцы / Hover (2018) WEBRip | L2 бесплатно без регистрацииCopyright © 2019 .