Скачать Последний из Сабудара (1957) WEB-DLRip-AVC от New-Team бесплатно без регистрации





Страна: СССР
Перевод:Год выпуска: 1957
Аудио: 48 kHz, Dolby Digital AC3 2.0, 192 kbps

Режиссер: Шота Манагадзе

Продолжительность: 01:16:45

WEB-DLRip-AVC
Формат видео: MKV

Видео: 712->762x572 (4:3), 25,000 fps, H264 ~ 1837 kbps avg, 0.180 bit/pixel
AVPStudio Оценка10 из 10 (1 голосов, самая низкая оценка - 10, самая высокая - 10) КатегорияНаши фильмы Раздают1 Качают0 Сидер замечен06-05-2019 18:19:07 (1 месяц назад) Добавлен18-02-2017 13:19:02 (28 месяцев назад) Размер1.09 GB (1169048520 Bytes)Источник:В ролях:
Белла Мирианашвили, Имеда Кахиани, Григорий (Григол) Ткабладзе, Зураб Лаперадзе, Гиви Тохадзе, Акакий (Како) Кванталиани, Сесилия Такаишвили, Иосиф (Сосо) Лагидзе, Ипполит Хвичия, Мака Махарадзе, Нодар Мгалоблишвили, Капитон Абесадзе, Нодар Пиранишвили, Мери Канделаки, Шалва Хонели (Гоголашвили), Мариам Мдивани, Лия Сараджишвили, Валентин Донгузашвили, Ерастий Биланишвили, В. Мардалеишвили, Карло Саканделидзе, Еремия Сванадзе...
Описание:
Молодой парень живет в горной грузинской деревне Сабудара. Ему нравится жить на родной земле, рядом со своим отцом - Сачино, мастером гончарного дела. Но однажды он узнаёт, что семья девушки, в которую он влюблен уезжают в Кутаиси. И тогда он решает сбежать из дома вслед за ней.



Жанр: мелодрама, комедия
Полный список актёров

Оригинальная аудиодорожка: русский

Производство: Грузия-фильм

Качество видео:Не требуется
Cубтитры: нет
WEB-DL 720p
Раздача от:
MediaInfo
Общее
Полное имя : Posledniy.iz.Sabudara.1957.WEB-DLRip-AVC_[New-team]_by_AVP_Studio.mkv
Формат : Matroska
Версия формата : Version 2
Размер файла : 1,09 Гбайт
Продолжительность : 1 ч. 16 м.
Общий поток : 2031 Кбит/сек
Дата кодирования : UTC 2017-02-17 14:44:58
Программа кодирования : mkvmerge v6.1.0 ('Old Devil') built on Mar 4 2013 09:10:42
Библиотека кодирования : libebml v1.3.0 + libmatroska v1.4.0

Видео
Идентификатор : 1
Формат : AVC
Формат/Информация : Advanced Video Codec
Профиль формата : High@L4.1
Параметр CABAC формата : Да
Параметр ReFrames формата : 10 кадров
Идентификатор кодека : V_MPEG4/ISO/AVC
Продолжительность : 1 ч. 16 м.
Битрейт : 1837 Кбит/сек
Ширина : 712 пикселей
Высота : 572 пикселя
Соотношение сторон : 4:3
Режим частоты кадров : Постоянный
Частота кадров : 25,000 кадров/сек
Цветовое пространство : YUV
Субдискретизация насыщенности : 4:2:0
Битовая глубина : 8 бит
Тип развёртки : Прогрессивная
Бит/(Пиксели*Кадры) : 0.180
Размер потока : 987 Мбайт (89%)
Библиотека кодирования : x264 core 148 r2597 e86f3a1
Настройки программы : cabac=1 / ref=10 / deblock=1:-2:-1 / analyse=0x3:0x113 / me=umh / subme=10 / psy=1 / psy_rd=1.00:0.00 / mixed_ref=1 / me_range=32 / chroma_me=1 / trellis=2 / 8x8dct=1 / cqm=0 / deadzone=21,11 / fast_pskip=1 / chroma_qp_offset=-2 / threads=6 / lookahead_threads=1 / sliced_threads=0 / nr=0 / decimate=0 / interlaced=0 / bluray_compat=0 / constrained_intra=0 / bframes=8 / b_pyramid=2 / b_adapt=2 / b_bias=0 / direct=3 / weightb=1 / open_gop=0 / weightp=2 / keyint=250 / keyint_min=25 / scenecut=40 / intra_refresh=0 / rc=2pass / mbtree=0 / bitrate=1837 / ratetol=1.0 / qcomp=0.60 / qpmin=0 / qpmax=69 / qpstep=4 / cplxblur=20.0 / qblur=0.5 / ip_ratio=1.40 / pb_ratio=1.30 / aq=1:1.00
Default : Да
Forced : Нет

Аудио
Идентификатор : 2
Формат : AC-3
Формат/Информация : Audio Coding 3
Расширение режима : CM (complete main)
Параметр Endianness формата : Big
Идентификатор кодека : A_AC3
Продолжительность : 1 ч. 16 м.
Вид битрейта : Постоянный
Битрейт : 192 Кбит/сек
Каналы : 2 канала
Расположение каналов : Front: L R
Частота : 48,0 КГц
Частота кадров : 31,250 кадров/сек (1536 spf)
Битовая глубина : 16 бит
Метод сжатия : С потерями
Размер потока : 105 Мбайт (9%)
Default : Да
Forced : Нет

Скриншоты

Залил

Если у вас возникли проблемы с закачкой Последний из Сабудара (1957) WEB-DLRip-AVC от New-Team, перейдите по ссылке - там вы найдете решение своей проблемы.

Категория: Наши фильмы

 

Скачать Последний из Сабудара (1957) WEB-DLRip-AVC от New-Team бесплатно без регистрации

 

Информация
Посетители, находящиеся в группе Гости, не могут оставлять комментарии к данной публикации.
 
 
Скачать Последний из Сабудара (1957) WEB-DLRip-AVC от New-Team бесплатно без регистрацииCopyright © 2019 .