Скачать Механик: Воскрешение / Mechanic: Resurrection (2016) BDRip 1080p | D, P, A | NOR Transfer | Лицензия бесплатно без регистрации






Информация о фильме
В ролях: Джейсон Стэйтем, Джессика Альба, Томми Ли Джонс, Мишель Йео, Наталия Гуслистая, Ейяинг Рхатха Пхонгам, Сэм Хэзелдайн, Джон Ченатьемпо, Райчо Василев, Аарон Брамфилд.

Семпл
Доп. инфоНорвежский трансфер (без английского хардсаба)
Mediainfox264 [info]: frame I:1326 Avg QP:13.11 size:169324
x264 [info]: frame P:45676 Avg QP:15.89 size: 58158
x264 [info]: frame B:94378 Avg QP:17.69 size: 24972

Общее
Уникальный идентификатор : 233393014330650855205071485276800038374 (0xAF95DC08EA09573F8B6AD1C9EFCA35E6)
Полное имя : Mechanic_Resurrection.2016.BDRip.1080p.mkv
Формат : Matroska
Версия формата : Version 2
Размер файла : 6,90 Гбайт
Продолжительность : 1 ч. 38 м.
Общий поток : 10,1 Мбит/сек
Название фильма : Mechanic_Resurrection.2016.BDRip.1080p
Дата кодирования : UTC 2017-03-10 13:30:30
Программа кодирования : mkvmerge v4.0.0 ('The Stars were mine') сборка от Jun 6 2010 16:18:42
Библиотека кодирования : libebml v1.0.0 + libmatroska v1.0.0

Видео
Идентификатор : 1
Формат : AVC
Формат/Информация : Advanced Video Codec
Профиль формата : High@L4.1
Параметр CABAC формата : Да
Параметр ReFrames формата : 5 кадров
Идентификатор кодека : V_MPEG4/ISO/AVC
Продолжительность : 1 ч. 38 м.
Битрейт : 7120 Кбит/сек
Ширина : 1920 пикселей
Высота : 802 пикселя
Соотношение сторон : 2,40:1
Режим частоты кадров : Постоянный
Частота кадров : 24,000 кадра/сек
Цветовое пространство : YUV
Субдискретизация насыщенности : 4:2:0
Битовая глубина : 8 бит
Тип развёртки : Прогрессивная
Бит/(Пиксели*Кадры) : 0.193
Размер потока : 4,74 Гбайт (69%)
Заголовок : rip by -=walledol=-
Библиотека кодирования : x264 core 148 r2744 b97ae06
Настройки программы : cabac=1 / ref=5 / deblock=1:-3:-3 / analyse=0x3:0x133 / me=umh / subme=11 / psy=1 / psy_rd=1.00:0.10 / mixed_ref=1 / me_range=32 / chroma_me=1 / trellis=2 / 8x8dct=1 / cqm=0 / deadzone=21,11 / fast_pskip=0 / chroma_qp_offset=-3 / threads=6 / lookahead_threads=1 / sliced_threads=0 / nr=0 / decimate=1 / interlaced=0 / bluray_compat=0 / constrained_intra=0 / bframes=8 / b_pyramid=2 / b_adapt=2 / b_bias=0 / direct=3 / weightb=1 / open_gop=0 / weightp=2 / keyint=240 / keyint_min=24 / scenecut=40 / intra_refresh=0 / rc=2pass / mbtree=0 / bitrate=7120 / ratetol=1.0 / qcomp=0.60 / qpmin=0 / qpmax=69 / qpstep=4 / cplxblur=20.0 / qblur=0.5 / ip_ratio=1.40 / pb_ratio=1.30 / aq=3:0.85
Язык : English
Default : Нет
Forced : Нет

Аудио #1
Идентификатор : 2
Формат : AC-3
Формат/Информация : Audio Coding 3
Параметр Endianness формата : Big
Идентификатор кодека : A_AC3
Продолжительность : 1 ч. 38 м.
Вид битрейта : Постоянный
Битрейт : 640 Кбит/сек
Каналы : 6 каналов
Расположение каналов : Front: L C R, Side: L R, LFE
Частота : 48,0 КГц
Частота кадров : 31,250 кадров/сек (1536 spf)
Битовая глубина : 16 бит
Метод сжатия : С потерями
Размер потока : 450 Мбайт (6%)
Заголовок : DUB
Язык : Russian
ServiceKind : Complete Main
Default : Да
Forced : Нет

Аудио #2
Идентификатор : 3
Формат : AC-3
Формат/Информация : Audio Coding 3
Параметр Endianness формата : Big
Идентификатор кодека : A_AC3
Продолжительность : 1 ч. 38 м.
Вид битрейта : Постоянный
Битрейт : 640 Кбит/сек
Каналы : 6 каналов
Расположение каналов : Front: L C R, Side: L R, LFE
Частота : 48,0 КГц
Частота кадров : 31,250 кадров/сек (1536 spf)
Битовая глубина : 16 бит
Метод сжатия : С потерями
Размер потока : 450 Мбайт (6%)
Заголовок : Focus Studio
Язык : Russian
ServiceKind : Complete Main
Default : Нет
Forced : Нет

Аудио #3
Идентификатор : 4
Формат : AC-3
Формат/Информация : Audio Coding 3
Параметр Endianness формата : Big
Идентификатор кодека : A_AC3
Продолжительность : 1 ч. 38 м.
Вид битрейта : Постоянный
Битрейт : 640 Кбит/сек
Каналы : 6 каналов
Расположение каналов : Front: L C R, Side: L R, LFE
Частота : 48,0 КГц
Частота кадров : 31,250 кадров/сек (1536 spf)
Битовая глубина : 16 бит
Метод сжатия : С потерями
Размер потока : 450 Мбайт (6%)
Заголовок : Яроцкий
Язык : Russian
ServiceKind : Complete Main
Default : Нет
Forced : Нет

Аудио #4
Идентификатор : 5
Формат : AC-3
Формат/Информация : Audio Coding 3
Параметр Endianness формата : Big
Идентификатор кодека : A_AC3
Продолжительность : 1 ч. 38 м.
Вид битрейта : Постоянный
Битрейт : 384 Кбит/сек
Каналы : 6 каналов
Расположение каналов : Front: L C R, Side: L R, LFE
Частота : 48,0 КГц
Частота кадров : 31,250 кадров/сек (1536 spf)
Битовая глубина : 16 бит
Метод сжатия : С потерями
Размер потока : 270 Мбайт (4%)
Заголовок : Гаврилов
Язык : Russian
ServiceKind : Complete Main
Default : Нет
Forced : Нет

Аудио #5
Идентификатор : 6
Формат : AC-3
Формат/Информация : Audio Coding 3
Параметр Endianness формата : Big
Идентификатор кодека : A_AC3
Продолжительность : 1 ч. 38 м.
Вид битрейта : Постоянный
Битрейт : 640 Кбит/сек
Каналы : 6 каналов
Расположение каналов : Front: L C R, Side: L R, LFE
Частота : 48,0 КГц
Частота кадров : 31,250 кадров/сек (1536 spf)
Битовая глубина : 16 бит
Метод сжатия : С потерями
Размер потока : 450 Мбайт (6%)
Язык : English
ServiceKind : Complete Main
Default : Нет
Forced : Нет

Текст #1
Идентификатор : 7
Формат : UTF-8
Идентификатор кодека : S_TEXT/UTF8
Идентификатор кодека/Информация : UTF-8 Plain Text
Заголовок : Forced
Язык : Russian
Default : Да
Forced : Нет

Текст #2
Идентификатор : 8
Формат : UTF-8
Идентификатор кодека : S_TEXT/UTF8
Идентификатор кодека/Информация : UTF-8 Plain Text
Заголовок : Focus Studio
Язык : Russian
Default : Нет
Forced : Нет

Текст #3
Идентификатор : 9
Формат : UTF-8
Идентификатор кодека : S_TEXT/UTF8
Идентификатор кодека/Информация : UTF-8 Plain Text
Заголовок : Full
Язык : English
Default : Нет
Forced : Нет

Текст #4
Идентификатор : 10
Формат : UTF-8
Идентификатор кодека : S_TEXT/UTF8
Идентификатор кодека/Информация : UTF-8 Plain Text
Заголовок : SDH
Язык : English
Default : Нет
Forced : Нет

Меню
00:00:00.000 : en:Chapter 1
00:10:14.291 : en:Chapter 2
00:20:08.208 : en:Chapter 3
00:30:09.541 : en:Chapter 4
00:41:40.583 : en:Chapter 5
00:51:57.541 : en:Chapter 6
01:02:11.541 : en:Chapter 7
01:11:03.750 : en:Chapter 8
01:22:45.375 : en:Chapter 9
01:33:44.041 : en:Chapter 10
01:38:10.833 : en:Chapter 11
Скриншоты Залилwalledoll Оценка10 из 10 (4 голосов, самая низкая оценка - 10, самая высокая - 10) КатегорияЗарубежные фильмы Раздают0 Качают0 Сидер замечен13-06-2019 16:19:13 (1 час назад) Добавлен10-03-2017 17:20:32 (28 месяцев назад) Размер6.90 GB (7408191799 Bytes)Звук:
Аудио 1: AC3, 6 ch, 640 kbps, CBR - Русский (Дубляж)
Аудио 2: AC3, 6 ch, 640 kbps, CBR - Русский (MVO FocusStudio)
Аудио 3: AC3, 6 ch, 640 kbps, CBR - Русский (М. Яроцкий)
Аудио 4: AC3, 6 ch, 384 kbps, CBR - Русский (Гаврилов)
Аудио 5: AC3, 6 ch, 640 kbps, CBR - Английский
Качество: BDRip 1080p | D, P, A | NOR Transfer | Лицензия
Год выхода: 2016
Видео: 1920x800, 7120 Kbps, 24fps
Страна: Франция, США
О фильме:
Артура Бишопа, давно оставившего свое криминальное ремесло, вынуждают снова вступить в игру. Чтобы похитители вернули его возлюбленную, он должен сделать то, что у него получается лучше всего: от него требуется совершить три убийства, идеально обставленных как несчастные случаи.



Субтитры: Русские (форс, полные), Английские (полные, SDH)

Режиссер: Деннис Ганзель
Перевод: Дублированный (Лицензия BD RUS), Профессиональный (многоголосый, закадровый) (FocusStudio), Авторский (одноголосый, закадровый) (М. Яроцкий), (Гаврилов)

Продолжительность: 01:38:12
Кодек: MPEG4 Video (H264)
Жанр: Боевик, Триллер, Криминал
Название: Механик: Воскрешение
Студия: Chartoff-Winkler Productions, Davis-Films, ME2 Productions, Millennium Films
Оригинальное название: Mechanic: Resurrection

Если у вас возникли проблемы с закачкой Механик: Воскрешение / Mechanic: Resurrection (2016) BDRip 1080p | D, P, A | NOR Transfer | Лицензия, перейдите по ссылке - там вы найдете решение своей проблемы.

Категория: Зарубежные фильмы

 

Скачать Механик: Воскрешение / Mechanic: Resurrection (2016) BDRip 1080p | D, P, A | NOR Transfer | Лицензия бесплатно без регистрации

 

Информация
Посетители, находящиеся в группе Гости, не могут оставлять комментарии к данной публикации.
 
 
Скачать Механик: Воскрешение / Mechanic: Resurrection (2016) BDRip 1080p | D, P, A | NOR Transfer | Лицензия бесплатно без регистрацииCopyright © 2019 .