Скачать Дневник слабака 2: Правила Родрика / Diary of a Wimpy Kid: Rodrick Rules (2011) BDRip 1080p | P, D бесплатно без регистрации






Информация о фильме
Оригинальное название: Diary of a Wimpy Kid: Rodrick Rules
Продолжительность: 01:39:33
О фильме:
Грег Хеффлей возвращается после школьных каникул, избавившись от «сырного проклятия» и как никогда уверен в себе. Однако дела дома идут из рук вон плохо, особенно со старшим братом, Родриком. Грегу уже начинает казаться, что есть вещи пострашнее, чем средняя школа, — его семья!




Студия: Fox 2000 Pictures, Dune Entertainment, Color Force
телеканал "НТК"
Аудио #4: Английский ( AC3, 6ch, 384 Кбит/с, 48.0 KHz)
Аудио #3: Казахский ( АС3, 2ch, 192 Кбит/с, 48.0 KHz) Профессиональный (многоголосый, закадровый)Кодек: x.264
Аудио #1: Русский ( АС3, 6ch, 384 Кбит/с, 48.0 KHz) Профессиональный (многоголосый, закадровый)Видео: MPEG-4 AVC, 1920x816, 12.9 Mбит/с, 23.976 кадр/с
ussr2011 ОценкаНикто ещё не поставил оценку КатегорияЗарубежные фильмы Раздают1 Качают0 Сидер замечен13-06-2019 2:19:12 (5 часов назад) Добавлен13-07-2018 13:32:55 (11 месяц назад) Размер9.74 GB (10453547009 Bytes)Субтитры: русские, английские
MediaInfo
General
Unique ID : 175406212324326001348105092895784752303 (0x83F601F6F80A69FEAE1FCEE5A23AD4AF)
Complete name : Diary.of.a.Wimpy.Kid.Roderick.Rules.2011.BDRip.1080p.mkv
Format : Matroska
Format version : Version 4 / Version 2
File size : 9.74 GiB
Duration : 1 h 39 min
Overall bit rate : 14.0 Mb/s
Encoded date : UTC 2018-07-12 22:07:19
Writing application : mkvmerge v7.1.0 ('Good Love') 64bit built on Jul 27 2014 13:06:55
Writing library : libebml v1.3.0 + libmatroska v1.4.1

Video
ID : 1
Format : AVC
Format/Info : Advanced Video Codec
Format profile : High@L4.1
Format settings : CABAC / 5 Ref Frames
Format settings, CABAC : Yes
Format settings, ReFrames : 5 frames
Codec ID : V_MPEG4/ISO/AVC
Duration : 1 h 39 min
Bit rate : 12.9 Mb/s
Width : 1 920 pixels
Height : 816 pixels
Display aspect ratio : 2.35:1
Frame rate mode : Constant
Frame rate : 23.976 FPS
Color space : YUV
Chroma subsampling : 4:2:0
Bit depth : 8 bits
Scan type : Progressive
Bits/(Pixel*Frame) : 0.343
Stream size : 8.93 GiB (92%)
Writing library : x264 core 102 r1666 d058f37
Encoding settings : cabac=1 / ref=5 / deblock=1:-3:-3 / analyse=0x3:0x113 / me=umh / subme=10 / psy=1 / psy_rd=1.05:0.10 / mixed_ref=1 / me_range=64 / chroma_me=1 / trellis=2 / 8x8dct=1 / cqm=2 / deadzone=21,11 / fast_pskip=0 / chroma_qp_offset=-2 / threads=12 / sliced_threads=0 / nr=0 / decimate=1 / interlaced=0 / constrained_intra=0 / bframes=3 / b_pyramid=2 / b_adapt=2 / b_bias=0 / direct=3 / weightb=1 / open_gop=0 / weightp=2 / keyint=250 / keyint_min=25 / scenecut=40 / intra_refresh=0 / rc_lookahead=60 / rc=2pass / mbtree=1 / bitrate=12871 / ratetol=2.0 / qcomp=0.70 / qpmin=10 / qpmax=51 / qpstep=4 / cplxblur=20.0 / qblur=0.5 / vbv_maxrate=50000 / vbv_bufsize=50000 / ip_ratio=1.40 / aq=1:1.00 / nal_hrd=none
Language : English
Default : Yes
Forced : No

Audio #1
ID : 2
Format : AC-3
Format/Info : Audio Coding 3
Codec ID : A_AC3
Duration : 1 h 39 min
Bit rate mode : Constant
Bit rate : 384 kb/s
Channel(s) : 6 channels
Channel positions : Front: L C R, Side: L R, LFE
Sampling rate : 48.0 kHz
Frame rate : 31.250 FPS (1536 SPF)
Bit depth : 16 bits
Compression mode : Lossy
Stream size : 273 MiB (3%)
Title : Профессиональный (многоголосый закадровый) R5
Language : Russian
Service kind : Complete Main
Default : Yes
Forced : No

Audio #2
ID : 3
Format : AC-3
Format/Info : Audio Coding 3
Codec ID : A_AC3
Duration : 1 h 39 min
Bit rate mode : Constant
Bit rate : 192 kb/s
Channel(s) : 2 channels
Channel positions : Front: L R
Sampling rate : 48.0 kHz
Frame rate : 31.250 FPS (1536 SPF)
Bit depth : 16 bits
Compression mode : Lossy
Stream size : 137 MiB (1%)
Title : Профессиональный (дублированный) телеканал "ТЕТ"
Language : Ukrainian
Service kind : Complete Main
Default : No
Forced : No

Audio #3
ID : 4
Format : AC-3
Format/Info : Audio Coding 3
Codec ID : A_AC3
Duration : 1 h 39 min
Bit rate mode : Constant
Bit rate : 192 kb/s
Channel(s) : 2 channels
Channel positions : Front: L R
Sampling rate : 48.0 kHz
Frame rate : 31.250 FPS (1536 SPF)
Bit depth : 16 bits
Compression mode : Lossy
Stream size : 137 MiB (1%)
Title : Профессиональный (многоголосый закадровый) телеканал "НТК"
Language : Kazakh
Service kind : Complete Main
Default : No
Forced : No

Audio #4
ID : 5
Format : AC-3
Format/Info : Audio Coding 3
Codec ID : A_AC3
Duration : 1 h 39 min
Bit rate mode : Constant
Bit rate : 384 kb/s
Channel(s) : 6 channels
Channel positions : Front: L C R, Side: L R, LFE
Sampling rate : 48.0 kHz
Frame rate : 31.250 FPS (1536 SPF)
Bit depth : 16 bits
Compression mode : Lossy
Stream size : 273 MiB (3%)
Language : English
Service kind : Complete Main
Default : No
Forced : No

Text #1
ID : 6
Format : UTF-8
Codec ID : S_TEXT/UTF8
Codec ID/Info : UTF-8 Plain Text
Duration : 1 h 34 min
Bit rate : 104 b/s
Count of elements : 1229
Stream size : 72.7 KiB (0%)
Language : Russian
Default : No
Forced : No

Text #2
ID : 7
Format : UTF-8
Codec ID : S_TEXT/UTF8
Codec ID/Info : UTF-8 Plain Text
Duration : 1 h 39 min
Bit rate : 70 b/s
Count of elements : 1667
Stream size : 51.2 KiB (0%)
Language : English
Default : No
Forced : No

Menu
00:00:00.000 : en:00:00:00.000
00:09:01.624 : en:00:09:01.624
00:09:31.988 : en:00:09:31.988
00:12:16.069 : en:00:12:16.069
00:14:14.687 : en:00:14:14.687
00:17:10.780 : en:00:17:10.780
00:19:58.697 : en:00:19:58.697
00:24:10.741 : en:00:24:10.741
00:28:00.178 : en:00:28:00.178
00:36:13.797 : en:00:36:13.797
00:41:47.714 : en:00:41:47.714
00:46:37.545 : en:00:46:37.545
00:50:34.865 : en:00:50:34.865
00:54:10.497 : en:00:54:10.497
00:57:14.181 : en:00:57:14.181
01:01:52.042 : en:01:01:52.042
01:04:19.064 : en:01:04:19.064
01:08:09.043 : en:01:08:09.043
01:12:24.674 : en:01:12:24.674
01:16:14.779 : en:01:16:14.779
01:20:05.092 : en:01:20:05.092
01:25:53.273 : en:01:25:53.273
01:29:43.503 : en:01:29:43.503
01:33:11.878 : en:01:33:11.878

Скриншоты ЗалилРежиссер: Дэвид Бауэрс
Жанр: Комедия
телеканал "ТЕТ"
Аудио #2: Украинский ( АС3, 2ch, 192 Кбит/с, 48.0 KHz) Профессиональный (дублированный)Страна: США
Название: Дневник слабака 2: Правила Родрика
Год выхода: 2011
R5
Звук:
В ролях: Захари Гордан, Девон Бостик, Рэйчел Харрис, Роберт Капрон, Стив Зан, Коннор Филдинг, Оуэн Филдинг, Пейтон Лист, Каран Брэр, Лэйн МакНил

Качество: BDRip 1080p
Перевод: Профессиональный многоголосый, дублированный

Если у вас возникли проблемы с закачкой Дневник слабака 2: Правила Родрика / Diary of a Wimpy Kid: Rodrick Rules (2011) BDRip 1080p | P, D, перейдите по ссылке - там вы найдете решение своей проблемы.

Категория: Зарубежные фильмы

 

Скачать Дневник слабака 2: Правила Родрика / Diary of a Wimpy Kid: Rodrick Rules (2011) BDRip 1080p | P, D бесплатно без регистрации

 

Информация
Посетители, находящиеся в группе Гости, не могут оставлять комментарии к данной публикации.
 
 
Скачать Дневник слабака 2: Правила Родрика / Diary of a Wimpy Kid: Rodrick Rules (2011) BDRip 1080p | P, D бесплатно без регистрацииCopyright © 2019 .