Скачать Новые приключения Стича / Stitch! The Movie (2003) WEB-DLRip от Stranik 2.0 | D бесплатно без регистрации






Качество : WEB-DLRip (Исходник: Stitch! The Movie (2003) 1080p WEB-DL DD5.1 H.264-TrollHD)

Продолжительность : 01:00:23
Информация о фильме

Перевод 1 : Профессиональный (Дублированный)
Жанр : мультфильм, комедия, семейный
Файл
Этот релиз также создан на основе скаченного файла: «Stitch! The Movie (2003) 1080p WEB-DL DD5.1 H.264-TrollHD». Я подогнал и добавил русские аудио дороги (перевод) к этому видео, и добавил субтитры.
Это AVI XviD MPEG-4 версия, рип сделан мной с того же видео файла.





ЗалилАудио 3 : Английский, AC3, 48.0 kHz, 6 ch, ~384 kbps (Оригинал)
Перевод 2 : Профессиональный (Многоголосый, закадровый)
Страник 2.0 ОценкаНикто ещё не поставил оценку КатегорияМультипликация Раздают0 Качают0 Сидер замечен12-06-2019 7:19:11 (1 день назад) Добавлен07-01-2014 16:06:38 (66 месяцев назад) Размер1.38 GB (1482880688 Bytes)Аудио 2 : Русский, AC3, 48.0 kHz, 6 ch, ~448 kbps (Многоголосый, закадровый)
Роли озвучивали : Дэйви Чейз, Крис Сандерс, Тиа Каррере, Дэвид Огден Стайерз, Кевин МакДональд, Винг Реймз, Ди Брэдли Бейкер, Кевин Майкл Ричардсон, Джефф Беннетт, Кори Бертон



Описание : Мы знаем, что Стич был «Экспериментальным Образцом 626-м» — но интересовала ли Вас когда-нибудь судьба первых 625? На этот раз речь пойдет о новых шутках и проказах веселого и непоседливого инопланетянина, который свалился на планету Земля и прямиком угодил в семью Лило. Теперь Стич, Пликли и Джамба — члены одной семьи.
Но Лило и Стич еще не знают, что Джамба тайно отправил на Землю всех 625 инопланетных предшественников… и злобный Капитан Ганту намеревается отправить их всех обратно. Все зависит от Лило и Стича, смогут ли они спасти свою инопланетную родню?


Название : Новые приключения Стича
Страна : США
Релиз :

Формат видео : AVI
Режиссеры : Тони Крэйг, Роберт Ганнавей
Субтитры : Русские (внешние), Английские (внешние): SubRip (srt)




Скриншоты







MediaInfo

General
Complete name : E:Torrent_2\Stitch!.The.Movie.2003.WEB-DLRip.DUB.MVO.Eng...Stranik.2.0Stitch!.The.Movie.2003.WEB-DLRip.DUB.MVO.Eng...Stranik.2.0.avi
Format : AVI
Format/Info : Audio Video Interleave
Format profile : OpenDML
File size : 1.38 GiB
Duration : 1h 0mn
Overall bit rate : 3 273 Kbps
Writing application : AVI-Mux GUI 1.17.8, Aug 30 2008 12:36:58

Video #0
ID : 0
Format : xvid
Codec ID : xvid
Duration : 1h 0mn
Bit rate : 2 048 Kbps
Width : 720 pixels
Height : 400 pixels
Display aspect ratio : 16:9
Frame rate : 25.000 fps
Bits/(Pixel*Frame) : 0.284
Stream size : 885 MiB (63%)

Audio #1
ID : 1
Format : AC-3
Format/Info : Audio Coding 3
Mode extension : CM (complete main)
Codec ID : 2000
Duration : 1h 0mn
Bit rate mode : Constant
Bit rate : 384 Kbps
Channel(s) : 6 channels
Channel positions : Front: L C R, Side: L R, LFE
Sampling rate : 48.0 KHz
Bit depth : 16 bits
Compression mode : Lossy
Stream size : 166 MiB (12%)
Alignment : Aligned on interleaves
Interleave, duration : 64 ms (1.60 video frames)
Interleave, preload duration : 192 ms
Title : Russian_DUB

Audio #2
ID : 2
Format : AC-3
Format/Info : Audio Coding 3
Mode extension : CM (complete main)
Codec ID : 2000
Duration : 1h 0mn
Bit rate mode : Constant
Bit rate : 448 Kbps
Channel(s) : 6 channels
Channel positions : Front: L C R, Side: L R, LFE
Sampling rate : 48.0 KHz
Bit depth : 16 bits
Compression mode : Lossy
Stream size : 194 MiB (14%)
Alignment : Aligned on interleaves
Interleave, duration : 64 ms (1.60 video frames)
Interleave, preload duration : 192 ms
Title : Russian_MVO

Audio #3
ID : 3
Format : AC-3
Format/Info : Audio Coding 3
Mode extension : CM (complete main)
Codec ID : 2000
Duration : 1h 0mn
Bit rate mode : Constant
Bit rate : 384 Kbps
Channel(s) : 6 channels
Channel positions : Front: L C R, Side: L R, LFE
Sampling rate : 48.0 KHz
Bit depth : 16 bits
Compression mode : Lossy
Stream size : 166 MiB (12%)
Alignment : Aligned on interleaves
Interleave, duration : 64 ms (1.60 video frames)
Interleave, preload duration : 192 ms
Title : English

О релизе

Оригинальное название : Stitch! The Movie
Видео : XviD, 720x400 (16:9), 25.000 fps, ~2048 kbps avg, 0.284 bit/pixel
Год выхода : 2003
Русские субтитры : есть (внешние)


Производство : Walt Disney Television Animation
Аудио 1 : Русский, AC3, 48.0 kHz, 6 ch, ~384 kbps (Дублированный)

Если у вас возникли проблемы с закачкой Новые приключения Стича / Stitch! The Movie (2003) WEB-DLRip от Stranik 2.0 | D, перейдите по ссылке - там вы найдете решение своей проблемы.

Категория: Мультипликация

 

Скачать Новые приключения Стича / Stitch! The Movie (2003) WEB-DLRip от Stranik 2.0 | D бесплатно без регистрации

 

Информация
Посетители, находящиеся в группе Гости, не могут оставлять комментарии к данной публикации.
 
 
Скачать Новые приключения Стича / Stitch! The Movie (2003) WEB-DLRip от Stranik 2.0 | D бесплатно без регистрацииCopyright © 2019 .