Скачать Разборка / Showdown (1993) BDRip 1080p от MediaClub | A бесплатно без регистрации






Информация о фильме
В ролях: Билли Блэнкс, Кенн Скотт, Кристина Тэйлор, Джон Мэллори Ашер, Патрик Килпатрик, Линда Дона, Кен МакЛаод, Брайон Джеймс, Джеймс Лью

Оригинальное название: Showdown
Релиз: | ЗалилНазвание: Разборка
Аудио #2: Русский (AC3, 2 ch, 192 Кбит/с) / Авторский одноголосый (Горчаков)
Описание: Кен Маркс (Кенн Скотт) поступает в новую школу, где в первый же день находит себе врага, который зарабатывает на жизнь выступая в запрещенных полноконтанктных боях по каратэ. Школьный дворник Билли Грант (Билли Блэнкс) решает помочь Кену постоять за себя, обучив его секретным приемчикам.



DenisRodman
MIx264 [info]: frame I:941 Avg QP:15.13 size:231191
x264 [info]: frame P:39494 Avg QP:18.01 size: 92079
x264 [info]: frame B:100783 Avg QP:20.32 size: 31156
x264 [info]: consecutive B-frames: 4.4% 5.2% 17.4% 39.0% 15.0% 17.4% 0.7% 0.3% 0.6%
***********************************************************************************************************************
Общее
Уникальный идентификатор : 173169749538666026613055217416338800032 (0x824747D60C28253FAC5F9E36AEFDFDA0)
Полное имя : D:Mои раздачиRazborka.1993.BDRip.1080p-MediaClub.mkv
Формат : Matroska
Версия формата : Version 4 / Version 2
Размер файла : 7,09 Гбайт
Продолжительность : 1 ч. 38 м.
Общий поток : 10,3 Мбит/сек
Название фильма : -=MediaClub-kaspr=-
Дата кодирования : UTC 2014-09-09 09:47:02
Программа кодирования : mkvmerge v6.9.1 ('Blue Panther') 64bit built on Apr 18 2014 18:23:38
Библиотека кодирования : libebml v1.3.0 + libmatroska v1.4.1

Видео
Идентификатор : 1
Формат : AVC
Формат/Информация : Advanced Video Codec
Профиль формата : High@L4.1
Параметр CABAC формата : Да
Параметр ReFrames формата : 4 кадра
Идентификатор кодека : V_MPEG4/ISO/AVC
Продолжительность : 1 ч. 38 м.
Битрейт : 9500 Кбит/сек
Ширина : 1920 пикселей
Высота : 1080 пикселей
Соотношение сторон : 16:9
Режим частоты кадров : Постоянный
Частота кадров : 23,976 кадра/сек
Цветовое пространство : YUV
Субдискретизация насыщенности : 4:2:0
Битовая глубина : 8 бит
Тип развёртки : Прогрессивная
Бит/(Пиксели*Кадры) : 0.191
Размер потока : 6,37 Гбайт (90%)
Заголовок : -=MediaClub-kaspr=-
Библиотека кодирования : x264 core 142 r2431+42 c69a006 tMod [8-bit@4:2:0 X86_64]
Настройки программы : cabac=1 / ref=4 / deblock=1:-3:-3 / analyse=0x3:0x113 / me=umh / subme=11 / psy=1 / fade_compensate=0.00 / psy_rd=1.00:0.20 / mixed_ref=1 / me_range=32 / chroma_me=1 / trellis=2 / 8x8dct=1 / cqm=0 / deadzone=21,11 / fast_pskip=0 / chroma_qp_offset=-3 / threads=12 / lookahead_threads=2 / sliced_threads=0 / nr=0 / decimate=0 / interlaced=0 / bluray_compat=0 / constrained_intra=0 / fgo=0 / bframes=8 / b_pyramid=2 / b_adapt=2 / b_bias=0 / direct=3 / weightb=1 / open_gop=0 / weightp=2 / keyint=240 / keyint_min=23 / scenecut=40 / intra_refresh=0 / rc=2pass / mbtree=0 / bitrate=9500 / ratetol=1.0 / qcomp=0.60 / qpmin=0:0:0 / qpmax=69:69:69 / qpstep=4 / cplxblur=20.0 / qblur=0.5 / ip_ratio=1.40 / pb_ratio=1.30 / aq=4:0.80 / aq-sensitivity=10.00 / aq-factor=1.00:1.00:1.00 / aq2=0 / aq3=0
Default : Да
Forced : Нет

Аудио #1
Идентификатор : 2
Формат : AC-3
Формат/Информация : Audio Coding 3
Расширение режима : CM (complete main)
Параметр Endianness формата : Big
Идентификатор кодека : A_AC3
Продолжительность : 1 ч. 38 м.
Вид битрейта : Постоянный
Битрейт : 192 Кбит/сек
Каналы : 2 канала
Расположение каналов : Front: L R
Частота : 48,0 КГц
Битовая глубина : 16 бит
Метод сжатия : С потерями
Размер потока : 135 Мбайт (2%)
Заголовок : Живов
Язык : Russian
Default : Да
Forced : Нет

Аудио #2
Идентификатор : 3
Формат : AC-3
Формат/Информация : Audio Coding 3
Расширение режима : CM (complete main)
Параметр Endianness формата : Big
Идентификатор кодека : A_AC3
Продолжительность : 1 ч. 38 м.
Вид битрейта : Постоянный
Битрейт : 192 Кбит/сек
Каналы : 2 канала
Расположение каналов : Front: L R
Частота : 48,0 КГц
Битовая глубина : 16 бит
Метод сжатия : С потерями
Размер потока : 135 Мбайт (2%)
Заголовок : Горчаков
Язык : Russian
Default : Нет
Forced : Нет

Аудио #3
Идентификатор : 4
Формат : AC-3
Формат/Информация : Audio Coding 3
Расширение режима : CM (complete main)
Параметр Endianness формата : Big
Идентификатор кодека : A_AC3
Продолжительность : 1 ч. 38 м.
Вид битрейта : Постоянный
Битрейт : 448 Кбит/сек
Каналы : 6 каналов
Расположение каналов : Front: L C R, Side: L R, LFE
Частота : 48,0 КГц
Битовая глубина : 16 бит
Метод сжатия : С потерями
Размер потока : 315 Мбайт (4%)
Язык : English
Default : Нет
Forced : Нет

Меню
00:00:00.000 : en:Chapter 01
00:00:00.375 : en:Chapter 02
00:14:55.227 : en:Chapter 03
00:29:49.037 : en:Chapter 04
00:44:48.435 : en:Chapter 05
00:59:09.379 : en:Chapter 06
01:14:21.081 : en:Chapter 07
01:23:27.085 : en:Chapter 08
01:34:54.772 : en:Chapter 09


kaspr Оценка10 из 10 (3 голосов, самая низкая оценка - 10, самая высокая - 10) КатегорияЗарубежные фильмы Раздают0 Качают0 Сидер замечен01-06-2019 11:19:12 (12 дня назад) Добавлен09-09-2014 16:58:58 (58 месяцев назад) Размер7.09 GB (7608487680 Bytes)Качество: BDRip 1080p
Выпущено: США / Imperial Entertainment, Tilford Productions
Жанр: Боевик, драма
Перевод: Авторский

Аудио #3: Английский (AC3, 6 ch, 448 Кбит/с)

Скриншоты
О релизе За блюр спасибо:Аудио #1: Русский (AC3, 2 ch, 192 Кбит/с) / Авторский одноголосый (Живов)
Год выпуска: 1993
Видео: MPEG-4 AVC, 9500 Кбит/с, 1920x1080, 23.976 кадр/с
Продолжительность: 01:38:10
Режиссер: Роберт Радлер

Если у вас возникли проблемы с закачкой Разборка / Showdown (1993) BDRip 1080p от MediaClub | A, перейдите по ссылке - там вы найдете решение своей проблемы.

Категория: Зарубежные фильмы

 

Скачать Разборка / Showdown (1993) BDRip 1080p от MediaClub | A бесплатно без регистрации

 

Информация
Посетители, находящиеся в группе Гости, не могут оставлять комментарии к данной публикации.
 
 
Скачать Разборка / Showdown (1993) BDRip 1080p от MediaClub | A бесплатно без регистрацииCopyright © 2019 .