Скачать Уайльд / Wilde (1997) DVDRip бесплатно без регистрации






Информация о фильме
Режиссер: Брайан Гилберт / Brian Gilbert
О фильме:
Остроумие и яркий талант Оскара Уайлда стали широко известны после публикации его романа «Портрет Дориана Грея». Уайлд, вполне довольный жизнью, наслаждался плодами успеха, пока одно событие не стало для него переломным.

Однажды он был представлен красивому и молодому лорду Альфреду Дугласу по прозвищу «Боси», чья дерзость и ум очаровали Оскара. Это знакомство переросло в страстную зависимость, которая полностью поглотила и, в конечном счете, разрушила его жизнь.



Кодек: XviD / MP3
Звук: MP3, 48.0 KHz, 2 ch, 128 Kbps, CBR

MediaInfoGeneral
Complete name : E:Wilde_DVDRip_745_[Rutor.org].avi
Format : AVI
Format/Info : Audio Video Interleave
File size : 743 MiB
Duration : 1h 57mn
Overall bit rate : 888 Kbps
Writing application : VirtualDubMod 1.5.10.2 (build 2540/release)
Writing library : VirtualDubMod build 2540/release

Video
ID : 0
Format : MPEG-4 Visual
Format profile : Advanced Simple@L5
Format settings, BVOP : 1
Format settings, QPel : No
Format settings, GMC : No warppoints
Format settings, Matrix : Custom
Codec ID : XVID
Codec ID/Hint : XviD
Duration : 1h 57mn
Bit rate : 751 Kbps
Width : 672 pixels
Height : 288 pixels
Display aspect ratio : 2.35:1
Frame rate : 23.976 fps
Color space : YUV
Chroma subsampling : 4:2:0
Bit depth : 8 bits
Scan type : Progressive
Compression mode : Lossy
Bits/(Pixel*Frame) : 0.162
Stream size : 628 MiB (85%)
Writing library : XviD 1.2.1 (UTC 2008-12-04)

Audio
ID : 1
Format : MPEG Audio
Format version : Version 1
Format profile : Layer 3
Codec ID : 55
Codec ID/Hint : MP3
Duration : 1h 56mn
Bit rate mode : Constant
Bit rate : 128 Kbps
Channel(s) : 2 channels
Sampling rate : 48.0 KHz
Compression mode : Lossy
Stream size : 107 MiB (14%)
Alignment : Aligned on interleaves
Interleave, duration : 42 ms (1.00 video frame)
Interleave, preload duration : 504 ms
Writing library : LAME3.97
Encoding settings : -m s -V 4 -q 2 -lowpass 17 -b 128
Скриншоты ОценкаНикто ещё не поставил оценку КатегорияЗарубежные фильмы Раздают0 Качают0 Сидер замечен13-04-2019 22:19:07 (2 месяца назад) Добавлен19-09-2011 17:41:24 (94 месяца назад) Размер743.23 MB (779329536 Bytes)Студия: Sony Pictures Classics
В ролях: Стивен Фрай /Stephen Fry/, Джуд Лоу /Jude Law/, Ванесса Редгрейв /Vanessa Redgrave/, Дженнифер Эл /Jennifer Ehle/, Джемма Джоунс /Gemma Jones/, Майкл Шин /Michael Sheen/, Том Уилкинсон /Tom Wilkinson/

Жанр: драма, биография, история
Название: Уайльд
Год выхода: 1997
Видео: XviD, 672x288 (2.35:1), 23.976 fps, 751 Kbps (0.162 bit/pixel)
Продолжительность: 01:51:00
Качество: DVDRip
Оригинальное название: Wilde
Страна: Германия, Япония, Великобритания
Перевод: Профессиональный (многоголосый, закадровый)

Если у вас возникли проблемы с закачкой Уайльд / Wilde (1997) DVDRip, перейдите по ссылке - там вы найдете решение своей проблемы.

Категория: Зарубежные фильмы

 

Скачать Уайльд / Wilde (1997) DVDRip бесплатно без регистрации

 

Информация
Посетители, находящиеся в группе Гости, не могут оставлять комментарии к данной публикации.
 
 
Скачать Уайльд / Wilde (1997) DVDRip бесплатно без регистрацииCopyright © 2019 .