Скачать Виски: Версия Айлы + Бонус / Whisky: The Islay Edition (2011) BDRip 720p от GYN бесплатно без регистрации




Сюжет фильма:

Документальный фильм "Виски. Версия Айлы" переносит зрителя в святая святых шотландского золота. Его цель не просто рассказать нам о виски, а показать тонкости этого напитка, искусство дегустации, ремесло дистилляции, истории заводов и богатство острова Айлы. В бонусном фильме нам расскажут о производстве пива на острове Айла.



Виски: Версия Айлы + Бонус / Whisky: The Islay Edition (2011) BDRip 720p
Жанр: Документальный, Научно-познавательный, Исследования, Энология, История
Субтитры: Отсутствуют

Информация о файле:
experience_88 Оценка10 из 10 (1 голосов, самая низкая оценка - 10, самая высокая - 10) КатегорияНаучно-популярные фильмы Раздают1 Качают0 Сидер замечен12-06-2019 15:19:11 (15 часов назад) Добавлен23-03-2013 15:31:15 (76 месяцев назад) Размер2.91 GB (3123705367 Bytes)Страна: Великобритания
GYN





Информация о фильме:

Аудио: 48 kHz, AC3 Dolby Digital, 3/2 (L,C,R,l,r) + LFE ch, ~448.00 kbps avg

Режиссёр: Олав Верховен, Фабиан Моллеман

Год выхода: 2011
Название: Виски: Версия Айлы + Бонус
Релиз отКачество: BDRip 720p
Видео: 1280 x 720, 16:9; 24.000 fps; ~ 5565 kbps; 0.247 bit/pixel
Перевод: Профессиональный одноголосый закадровый («Омикрон»)
Кодек: MPEG-4 AVC, H264 codec
Файл: MKV
Продолжительность: 01:02:27 + 00:07:11
Размер: 2.62 Gb + 289 Mb (2/3 )



MediaInfo General
Unique ID : 232873843191383803942743297027195408315 (0xAF31DEEBE042916FB4B468603D6E0FBB)
Complete name : F:Whisky_The.Islay.Edition.2011.RUS.-GYNWhisky.mkv
Format : Matroska
Format version : Version 4 / Version 2
File size : 2.63 GiB
Duration : 1h 2mn
Overall bit rate mode : Variable
Overall bit rate : 6 020 Kbps
Movie name : Whisky: The Islay Edition (2011)
Encoded date : UTC 2013-03-22 14:44:05
Writing application : mkvmerge v6.1.0 ('Old Devil') built on Mar 2 2013 14:32:37
Writing library : libebml v1.3.0 + libmatroska v1.4.0

Video
ID : 1
Format : AVC
Format/Info : Advanced Video Codec
Format profile : High@L4.1
Format settings, CABAC : Yes
Format settings, ReFrames : 6 frames
Codec ID : V_MPEG4/ISO/AVC
Duration : 1h 2mn
Bit rate mode : Variable
Bit rate : 5 452 Kbps
Maximum bit rate : 5 565 Kbps
Width : 1 280 pixels
Height : 720 pixels
Display aspect ratio : 16:9
Frame rate : 24.000 fps
Color space : YUV
Chroma subsampling : 4:2:0
Bit depth : 8 bits
Scan type : Progressive
Bits/(Pixel*Frame) : 0.247
Stream size : 2.38 GiB (91%)
Title : Encoded by GYN
Default : Yes
Forced : No

Audio
ID : 2
Format : AC-3
Format/Info : Audio Coding 3
Mode extension : CM (complete main)
Codec ID : A_AC3
Duration : 1h 2mn
Bit rate mode : Constant
Bit rate : 448 Kbps
Channel(s) : 6 channels
Channel positions : Front: L C R, Side: L R, LFE
Sampling rate : 48.0 KHz
Bit depth : 16 bits
Compression mode : Lossy
Stream size : 200 MiB (7%)
Title : VO («Омикрон»)
Language : Russian
Default : Yes
Forced : NoДополнительно Перевод и озвучивание осуществлено в рамках сервиса "Озвучивание". Спонсоры: Menkaura, tambov68, levanevski, borisol55, SemenS, benjjjamin, catismad, stanislav222, a_plus_q, ygorgor, eholin, baranovna, Badimo, wildhealer, IL, Кириллка, Shd_81, RAUL, Moritz, mentat, sns59, Nowikoff.


ПРИЯТНОГО ПРОСМОТРА! ЗалилОригинальное название: Whisky: The Islay Edition

Если у вас возникли проблемы с закачкой Виски: Версия Айлы + Бонус / Whisky: The Islay Edition (2011) BDRip 720p от GYN, перейдите по ссылке - там вы найдете решение своей проблемы.

Категория: Научно-популярные фильмы

 

Скачать Виски: Версия Айлы + Бонус / Whisky: The Islay Edition (2011) BDRip 720p от GYN бесплатно без регистрации

 

Информация
Посетители, находящиеся в группе Гости, не могут оставлять комментарии к данной публикации.
 
 
Скачать Виски: Версия Айлы + Бонус / Whisky: The Islay Edition (2011) BDRip 720p от GYN бесплатно без регистрацииCopyright © 2019 .