Скачать Большой переполох в маленьком Китае / Big Trouble in Little China (1986) BDRip-AVC от MediaClub | D, P, A бесплатно без регистрации






Информация о фильме
kaspr Оценка10 из 10 (1 голосов, самая низкая оценка - 10, самая высокая - 10) КатегорияЗарубежные фильмы Раздают0 Качают1 Сидер замечен13-06-2019 0:19:12 (3 часа назад) Добавлен29-12-2013 13:06:28 (66 месяцев назад) Размер3.47 GB (3730664068 Bytes)Год выпуска: 1986
Оригинальное название: Big Trouble in Little China
Название: Большой переполох в маленьком Китае
В ролях: Курт Рассел, Ким Кэтролл, Деннис Дун, Джеймс Хонг, Виктор Вон, Кейт Бёртон, Дональд Ли, Картер Вонг, Питер Квон, Джеймс Пакс, Чао Ли Чи, Джефф Имада, Раммел Мор, Крэйг ЭнДжи, Джун Киото Лу, Ноэль Той, Джерри Хардин, Джеймс Лью, Джим Лау, Кенни Эндосо, Стюарт Квон, Гари Той, Джордж Чунг, Джон Карпентер, Ноубл Крэйг, Дэнни Кван, Мин Луонг, Пол Джей.Кью. Ли, Аль Леонг, Джералд Окамура, Уилли Вонг, Эрик Ли, Йокио Дж. Коллинз, Билл М. Рюисаки, Брайан Имада, Натан Юнг, Дэн Иносанто, Дэниэл Вонг, Дэниэл Ли, Лия Чанг, Диана Танака, Уильям Б. Снайдер

Страна: США
Студия: TAFT Entertainment Pictures
Описание: Вслед за Стивеном Спилбергом в середине 80-х годов другой популярный режиссёр зрелищного кино Джон Карпентер попытался создать почти пародийную феерию с использованием электронных эффектов и необычных трюков. В его ленте с довольно завлекательным названием «Большой переполох в китайском квартале» водитель грузовика Джек Бёртон становится свидетелем того, как в китайском квартале Сан-Франциско похитили невесту его друга Вана. Оказывается, эта зеленоглазая девушка понадобилась для женитьбы в целях очередного обряда омоложения подпольного китайского волшебника и мага Ло Пана, который вот уже две тысячи лет живёт на свете.Водителю грузовика приходится углубится в недра китайского квартала Сан- Франциско




Релиз: | ЗалилКачество: BDRip (AVC)
Семпл

Скриншоты

MIОбщее
Уникальный идентификатор : 181217245481896131539762890325655868527 (0x88552C0500073A9AB1BE725492B8D46F)
Полное имя : D:Mои раздачиBolshoy.perepoloh.v.malenjkom.Kitae.1986.BDRip.(AVC)-MediaClub.mkv
Формат : Matroska
Версия формата : Version 4 / Version 2
Размер файла : 3,47 Гбайт
Продолжительность : 1 ч. 39 м.
Общий поток : 4983 Кбит/сек
Название фильма : -=MediaClub-kaspr=-
Дата кодирования : UTC 2013-12-28 17:49:37
Программа кодирования : mkvmerge v6.1.0 ('Old Devil') built on Mar 4 2013 09:10:42
Библиотека кодирования : libebml v1.3.0 + libmatroska v1.4.0

Видео
Идентификатор : 1
Формат : AVC
Формат/Информация : Advanced Video Codec
Профиль формата : High@L4.1
Параметр CABAC формата : Да
Параметр ReFrames формата : 9 кадров
Идентификатор кодека : V_MPEG4/ISO/AVC
Продолжительность : 1 ч. 39 м.
Битрейт : 3000 Кбит/сек
Ширина : 1024 пикселя
Высота : 430 пикселей
Соотношение сторон : 2,40:1
Соотношение сторон в оригинале : 2,40:1
Режим частоты кадров : Постоянный
Частота кадров : 23,976 кадра/сек
Цветовое пространство : YUV
Субдискретизация насыщенности : 4:2:0
Битовая глубина : 8 бит
Тип развёртки : Прогрессивная
Бит/(Пиксели*Кадры) : 0.284
Размер потока : 2,02 Гбайт (58%)
Заголовок : -=MediaClub-kaspr=-
Библиотека кодирования : x264 core 130 r2273 b3065e6
Настройки программы : cabac=1 / ref=9 / deblock=1:-3:-3 / analyse=0x3:0x133 / me=umh / subme=11 / psy=1 / psy_rd=1.00:0.20 / mixed_ref=1 / me_range=48 / chroma_me=1 / trellis=2 / 8x8dct=1 / cqm=0 / deadzone=21,11 / fast_pskip=0 / chroma_qp_offset=-3 / threads=12 / lookahead_threads=3 / sliced_threads=0 / nr=0 / decimate=0 / interlaced=0 / bluray_compat=0 / constrained_intra=0 / bframes=10 / b_pyramid=2 / b_adapt=2 / b_bias=0 / direct=3 / weightb=1 / open_gop=0 / weightp=2 / keyint=240 / keyint_min=23 / scenecut=40 / intra_refresh=0 / rc=2pass / mbtree=0 / bitrate=3000 / ratetol=1.0 / qcomp=0.60 / qpmin=0 / qpmax=69 / qpstep=4 / cplxblur=20.0 / qblur=0.5 / ip_ratio=1.40 / pb_ratio=1.30 / aq=1:1.00
Default : Да
Forced : Нет

Аудио #1
Идентификатор : 2
Формат : AC-3
Формат/Информация : Audio Coding 3
Расширение режима : CM (complete main)
Параметр Endianness формата : Big
Идентификатор кодека : A_AC3
Продолжительность : 1 ч. 39 м.
Вид битрейта : Постоянный
Битрейт : 448 Кбит/сек
Каналы : 6 каналов
Расположение каналов : Front: L C R, Side: L R, LFE
Частота : 48,0 КГц
Битовая глубина : 16 бит
Метод сжатия : С потерями
Размер потока : 320 Мбайт (9%)
Заголовок : Dub
Язык : Russian
Default : Да
Forced : Нет

Аудио #2
Идентификатор : 3
Формат : AC-3
Формат/Информация : Audio Coding 3
Расширение режима : CM (complete main)
Параметр Endianness формата : Big
Идентификатор кодека : A_AC3
Продолжительность : 1 ч. 39 м.
Вид битрейта : Постоянный
Битрейт : 448 Кбит/сек
Каналы : 6 каналов
Расположение каналов : Front: L C R, Side: L R, LFE
Частота : 48,0 КГц
Битовая глубина : 16 бит
Метод сжатия : С потерями
Размер потока : 320 Мбайт (9%)
Заголовок : MVO
Язык : Russian
Default : Нет
Forced : Нет

Аудио #3
Идентификатор : 4
Формат : AC-3
Формат/Информация : Audio Coding 3
Расширение режима : CM (complete main)
Параметр Endianness формата : Big
Идентификатор кодека : A_AC3
Продолжительность : 1 ч. 39 м.
Вид битрейта : Постоянный
Битрейт : 448 Кбит/сек
Каналы : 6 каналов
Расположение каналов : Front: L C R, Side: L R, LFE
Частота : 48,0 КГц
Битовая глубина : 16 бит
Метод сжатия : С потерями
Размер потока : 320 Мбайт (9%)
Заголовок : Михалёв
Язык : Russian
Default : Нет
Forced : Нет

Аудио #4
Идентификатор : 5
Формат : AC-3
Формат/Информация : Audio Coding 3
Расширение режима : CM (complete main)
Параметр Endianness формата : Big
Идентификатор кодека : A_AC3
Продолжительность : 1 ч. 39 м.
Вид битрейта : Постоянный
Битрейт : 192 Кбит/сек
Каналы : 1 канал
Расположение каналов : Front: C
Частота : 48,0 КГц
Битовая глубина : 16 бит
Метод сжатия : С потерями
Размер потока : 137 Мбайт (4%)
Язык : Ukrainian
Default : Нет
Forced : Нет

Аудио #5
Идентификатор : 6
Формат : AC-3
Формат/Информация : Audio Coding 3
Расширение режима : CM (complete main)
Параметр Endianness формата : Big
Идентификатор кодека : A_AC3
Продолжительность : 1 ч. 39 м.
Вид битрейта : Постоянный
Битрейт : 448 Кбит/сек
Каналы : 6 каналов
Расположение каналов : Front: L C R, Side: L R, LFE
Частота : 48,0 КГц
Битовая глубина : 16 бит
Метод сжатия : С потерями
Размер потока : 320 Мбайт (9%)
Язык : English
Default : Нет
Forced : Нет

Текст #1
Идентификатор : 7
Формат : UTF-8
Идентификатор кодека : S_TEXT/UTF8
Идентификатор кодека/Информация : UTF-8 Plain Text
Язык : Russian
Default : Нет
Forced : Нет

Текст #2
Идентификатор : 8
Формат : UTF-8
Идентификатор кодека : S_TEXT/UTF8
Идентификатор кодека/Информация : UTF-8 Plain Text
Язык : English
Default : Нет
Forced : Нет

Меню
00:00:00.000 : en:Chapter 01
00:02:32.068 : en:Chapter 02
00:06:17.126 : en:Chapter 03
00:08:34.096 : en:Chapter 04
00:09:55.553 : en:Chapter 05
00:12:43.804 : en:Chapter 06
00:13:58.546 : en:Chapter 07
00:15:16.498 : en:Chapter 08
00:17:55.908 : en:Chapter 09
00:20:18.592 : en:Chapter 10
00:24:30.302 : en:Chapter 11
00:28:09.479 : en:Chapter 12
00:30:48.972 : en:Chapter 13
00:32:45.838 : en:Chapter 14
00:34:49.420 : en:Chapter 15
00:36:04.412 : en:Chapter 16
00:36:47.788 : en:Chapter 17
00:37:42.843 : en:Chapter 18
00:38:32.226 : en:Chapter 19
00:40:14.120 : en:Chapter 20
00:44:20.699 : en:Chapter 21
00:46:12.770 : en:Chapter 22
00:49:37.557 : en:Chapter 23
00:51:06.605 : en:Chapter 24
00:56:41.106 : en:Chapter 25
00:59:49.127 : en:Chapter 26
01:01:46.828 : en:Chapter 27
01:03:00.359 : en:Chapter 28
01:04:32.910 : en:Chapter 29
01:06:09.548 : en:Chapter 30
01:09:39.967 : en:Chapter 31
01:11:03.592 : en:Chapter 32
01:12:58.624 : en:Chapter 33
01:15:53.173 : en:Chapter 34
01:16:24.538 : en:Chapter 35
01:18:05.389 : en:Chapter 36
01:25:57.193 : en:Chapter 37
01:27:19.025 : en:Chapter 38
01:28:09.826 : en:Chapter 39
01:29:21.689 : en:Chapter 40
01:31:20.266 : en:Chapter 41
01:33:04.412 : en:Chapter 42
01:35:31.434 : en:Chapter 43
01:36:15.227 : en:Chapter 44

Аудио #1: Русский (AC3, 6 ch, 448 Кбит/с) / Дублированный
Аудио #4: Украинский (AC3, 2 ch, 192 Кбит/с)
Продолжительность: 01:39:49
Видео: MPEG-4 AVC, 3000 Кбит/с, 1024x430, 23.976 кадр/с
Режиссер: Джон Карпентер
Аудио #2: Русский (AC3, 6 ch, 448 Кбит/с) / Профессиональный многоголосый
Субтитры: Русские, английские

Аудио #3: Русский (AC3, 6 ch, 448 Кбит/с) / Авторский одноголосый (А. Михалёв)
Жанр: Боевик, фэнтези, комедия, мелодрама, приключения
Аудио #5: Английский (AC3, 6 ch, 448 Кбит/с)
Перевод: Дублированный, профессиональный многоголосый, авторский одноголосый

Если у вас возникли проблемы с закачкой Большой переполох в маленьком Китае / Big Trouble in Little China (1986) BDRip-AVC от MediaClub | D, P, A, перейдите по ссылке - там вы найдете решение своей проблемы.

Категория: Зарубежные фильмы

 

Скачать Большой переполох в маленьком Китае / Big Trouble in Little China (1986) BDRip-AVC от MediaClub | D, P, A бесплатно без регистрации

 

Информация
Посетители, находящиеся в группе Гости, не могут оставлять комментарии к данной публикации.
 
 
Скачать Большой переполох в маленьком Китае / Big Trouble in Little China (1986) BDRip-AVC от MediaClub | D, P, A бесплатно без регистрацииCopyright © 2019 .