Скачать Адвокат вне закона / Moobeob Byeonhosa [01x01] (2018) HDTVRip 720p | L2 бесплатно без регистрации






Информация о фильме
Название: Адвокат вне закона
Режиссер: Ким Джин Мин
Перевод: Любительский, двухголосый, закадровый (студия "XDUB DORAMA", перевод на русский: ФСГ "Мания", закадровый текст читали: Denchik и Melani Tsiberman)

Примечание: общее количество серий неизвестно, выпуск продолжается.



Страна: Южная Корея
О фильме:
История Бон Сан Пхиля, адвоката, который предпочитает использовать свои кулаки чаще, чем законные методы решения проблем. Он ставит свою жизнь на кон в игре против могущественных фигур в погоне за истинным правосудием.

Субтитры: нет

Скриншоты MediaInfoGeneral
Unique ID : 200855563325851858028424819029649453327 (0x971B5FD81001949CB8923BCC0A44F10F)
Complete name : Lawless.Lawyer.EP01.720p.HDTVRip.mkv
Format : Matroska
Format version : Version 4 / Version 2
File size : 1.61 GiB
Duration : 1 h 4 min
Overall bit rate : 3 588 kb/s
Encoded date : UTC 2018-05-23 04:19:39
Writing application : mkvmerge v7.8.0 ('River Man') 32bit built on Mar 27 2015 16:18:02
Writing library : libebml v1.3.1 + libmatroska v1.4.2

Video
ID : 1
Format : AVC
Format/Info : Advanced Video Codec
Format profile : High@L3.2
Format settings, CABAC : Yes
Format settings, RefFrames : 3 frames
Codec ID : V_MPEG4/ISO/AVC
Duration : 1 h 4 min
Bit rate : 2 820 kb/s
Width : 1 280 pixels
Height : 720 pixels
Display aspect ratio : 16:9
Frame rate mode : Constant
Frame rate : 29.970 (30000/1001) FPS
Color space : YUV
Chroma subsampling : 4:2:0
Bit depth : 8 bits
Scan type : Progressive
Bits/(Pixel*Frame) : 0.102
Stream size : 1.26 GiB (79%)
Default : Yes
Forced : No

Audio
ID : 2
Format : PCM
Codec ID : A_PCM/INT/LIT
Duration : 1 h 4 min
Bit rate mode : Constant
Bit rate : 768 kb/s
Sampling rate : 48.0 kHz
Frame rate : 32.000 FPS (1500 SPF)
Bit depth : 16 bits
Stream size : 352 MiB (21%)
Default : Yes
Forced : No


Студия: tvN
Кодек: V_MPEG4/ISO/AVC
Жанр: драма, детектив
Звук: PCM, 48.0 kHz, 768 kb/s
Релиз от: ЗалилВ ролях: Ли Джун Ки, Со Йе Джи, Ли Хе Ён, Чхве Мин Су

Год выхода: 2018
Качество: HDTVRip 720p
Продолжительность: ~ 60 мин. серия
A.Berezovskiy ОценкаНикто ещё не поставил оценку КатегорияЗарубежные сериалы Раздают1 Качают0 Сидер замечен13-06-2019 0:19:12 (4 минуты назад) Добавлен25-05-2018 18:00:17 (13 месяца назад) Размер1.61 GB (1725259129 Bytes)Видео: 1280x720 (16:9), 29.970 FPS, 2820 kb/s
Оригинальное название: Moobeob Byeonhosa

Если у вас возникли проблемы с закачкой Адвокат вне закона / Moobeob Byeonhosa [01x01] (2018) HDTVRip 720p | L2, перейдите по ссылке - там вы найдете решение своей проблемы.

Категория: Зарубежные сериалы

 

Скачать Адвокат вне закона / Moobeob Byeonhosa [01x01] (2018) HDTVRip 720p | L2 бесплатно без регистрации

 

Информация
Посетители, находящиеся в группе Гости, не могут оставлять комментарии к данной публикации.
 
 
Скачать Адвокат вне закона / Moobeob Byeonhosa [01x01] (2018) HDTVRip 720p | L2 бесплатно без регистрацииCopyright © 2019 .