Скачать Хранители / Watchmen (2009) WEB-DLRip 720p от SuperMin | Театральная версия | D | Open Matte бесплатно без регистрации






Информация о фильме
Название: Хранители
SuperMin Оценка10 из 10 (1 голосов, самая низкая оценка - 10, самая высокая - 10) КатегорияЗарубежные фильмы Раздают20 Качают1 Сидер замечен12-06-2019 23:19:12 (4 минуты назад) Добавлен11-08-2018 18:24:34 (10 месяцев назад) Размер4.65 GB (4989458053 Bytes)Кодек: H.264
Оригинальное название: Watchmen
Видео: 1280x720 (16:9), 2822 kbps, 23.976 fps
Год выхода: 2009
Страна: США
Продолжительность: 02:42:04
В ролях: Малин Акерман, Билли Крудап, Мэттью Гуд, Джеки Эрл Хейли, Джеффри Дин Морган, Патрик Уилсон, Карла Гуджино, Мэтт Фрюэр, Стивен МакХэтти, Лаура Меннелл, Роб ЛаБелль, Гэри Хьюстон, Джерард Батлер



Действие картины разворачивается в параллельной реальности, в Америке 1985 года. В этом мире супергерои стали частью повседневной жизни общества, а Часы Судного Дня, застыв в пяти минутах от полуночи, отсчитывают время до столкновения ведущих мировых держав. После убийства одного из своих прежних коллег Роршах - супергерой, никогда не снимающий маски, - полон решимости свершить суд Линча.
Он начинает расследование заговора, призванного уничтожить или дискредитировать всех супергероев прошлого и настоящего. Он собирает своих соратников - отставной легион борцов с преступностью, но лишь один из них обладает подлинной силой. Постепенно Роршах осознает пугающий масштаб заговора, связанного с общим прошлым героев и сулящего катастрофические последствия в будущем. Они хранят наш покой, но кто охранит нас от Хранителей?



Перевод: Дубляж

Студия: Warner Bros. Pictures, Paramount Pictures, Legendary Pictures
Субтитры: Русские (форс., полные), английские

MIx264 [info]: frame I:1864 Avg QP:16.29 size:109647
x264 [info]: frame P:51751 Avg QP:17.98 size: 35995
x264 [info]: frame B:179530 Avg QP:21.27 size: 7592
x264 [info]: consecutive B-frames: 2.2% 2.6% 12.1% 13.4% 22.3% 40.7% 4.4% 1.8% 0.5%
x264 [total]: encoded 233145 frames, 4.24 fps, 2822.03 kb/s

General
Unique ID : 206103927968940655396201932023789449616 (0x9B0E2C32FEB56CA4BF382542C8CEF190)
Complete name : F:Хранители (Театральная версия) (Open Matte).mkv
Format : Matroska
Format version : Version 4 / Version 2
File size : 4.65 GiB
Duration : 2 h 42 min
Overall bit rate : 4 104 kb/s
Movie name : Хранители / Watchmen (2009) (Театральная) (Open Matte) - #LORDKILL#
Encoded date : UTC 2018-08-11 15:05:44
Writing application : mkvmerge v9.5.0 ('Quiet Fire') 64bit
Writing library : libebml v1.3.4 + libmatroska v1.4.5
Attachments : poster

Video
ID : 1
Format : AVC
Format/Info : Advanced Video Codec
Format profile : High@L4.1
Format settings, CABAC : Yes
Format settings, ReFrames : 9 frames
Codec ID : V_MPEG4/ISO/AVC
Duration : 2 h 42 min
Bit rate : 2 822 kb/s
Width : 1 280 pixels
Height : 720 pixels
Display aspect ratio : 16:9
Frame rate mode : Constant
Frame rate : 23.976 (24000/1001) FPS
Color space : YUV
Chroma subsampling : 4:2:0
Bit depth : 8 bits
Scan type : Progressive
Bits/(Pixel*Frame) : 0.128
Stream size : 3.19 GiB (69%)
Writing library : x264 core 146 r2538 121396c
Encoding settings : cabac=1 / ref=9 / deblock=1:-2:-2 / analyse=0x3:0x113 / me=umh / subme=11 / psy=1 / psy_rd=1.00:0.15 / mixed_ref=1 / me_range=32 / chroma_me=1 / trellis=2 / 8x8dct=1 / cqm=0 / deadzone=21,11 / fast_pskip=0 / chroma_qp_offset=-3 / threads=12 / lookahead_threads=2 / sliced_threads=0 / nr=0 / decimate=1 / interlaced=0 / bluray_compat=0 / constrained_intra=0 / bframes=8 / b_pyramid=2 / b_adapt=2 / b_bias=0 / direct=1 / weightb=1 / open_gop=0 / weightp=2 / keyint=240 / keyint_min=23 / scenecut=40 / intra_refresh=0 / rc=crf / mbtree=0 / crf=19.5 / qcomp=0.60 / qpmin=0 / qpmax=69 / qpstep=4 / ip_ratio=1.40 / pb_ratio=1.30 / aq=1:1.00
Language : English
Default : Yes
Forced : No

Audio #1
ID : 2
Format : AC-3
Format/Info : Audio Coding 3
Mode extension : CM (complete main)
Format settings, Endianness : Big
Codec ID : A_AC3
Duration : 2 h 42 min
Bit rate mode : Constant
Bit rate : 640 kb/s
Channel(s) : 6 channels
Channel positions : Front: L C R, Side: L R, LFE
Sampling rate : 48.0 kHz
Frame rate : 31.250 FPS (1536 spf)
Bit depth : 16 bits
Compression mode : Lossy
Stream size : 742 MiB (16%)
Title : Дубляж
Language : Russian
Default : Yes
Forced : No

Audio #2
ID : 3
Format : AC-3
Format/Info : Audio Coding 3
Mode extension : CM (complete main)
Format settings, Endianness : Big
Codec ID : A_AC3
Duration : 2 h 42 min
Bit rate mode : Constant
Bit rate : 640 kb/s
Channel(s) : 6 channels
Channel positions : Front: L C R, Side: L R, LFE
Sampling rate : 48.0 kHz
Frame rate : 31.250 FPS (1536 spf)
Bit depth : 16 bits
Compression mode : Lossy
Stream size : 742 MiB (16%)
Title : Original
Language : English
Default : No
Forced : No

Text #1
ID : 4
Format : UTF-8
Codec ID : S_TEXT/UTF8
Codec ID/Info : UTF-8 Plain Text
Duration : 2 h 14 min
Bit rate : 0 b/s
Count of elements : 19
Stream size : 869 Bytes (0%)
Title : Forced
Language : Russian
Default : Yes
Forced : No

Text #2
ID : 5
Format : UTF-8
Codec ID : S_TEXT/UTF8
Codec ID/Info : UTF-8 Plain Text
Duration : 2 h 35 min
Bit rate : 92 b/s
Count of elements : 1691
Stream size : 105 KiB (0%)
Title : Full
Language : Russian
Default : No
Forced : No

Text #3
ID : 6
Format : UTF-8
Codec ID : S_TEXT/UTF8
Codec ID/Info : UTF-8 Plain Text
Duration : 2 h 34 min
Bit rate : 51 b/s
Count of elements : 1655
Stream size : 58.4 KiB (0%)
Title : Full
Language : English
Default : No
Forced : No

Menu
00:00:00.000 : en:Unforgettable Fall
00:05:41.633 : en:Changing Times Credits
00:11:16.134 : en:Somebody Knows Why
00:15:11.994 : en:Us Retired Guys
00:17:36.013 : en:Hiding in Plain Sight
00:21:43.928 : en:Friendly Warnings
00:24:33.847 : en:Interference
00:29:32.312 : en:Not That Many Laughs
00:33:59.204 : en:Tough All Over
00:38:30.725 : en:Vietnam Victory Night
00:41:58.599 : en:Right Leadership
00:43:36.280 : en:What Happened to Us?
00:46:59.358 : en:Moloch's Second Visitor
00:51:14.196 : en:I Am Pagliacci
00:53:22.533 : en:Unwanted Responsibility
00:56:02.901 : en:Shadows in the Fog
00:59:17.220 : en:Leave Me Alone
01:04:14.142 : en:Old Photographs
01:06:04.085 : en:The Accident
01:09:26.454 : en:Something Lethal
01:11:05.052 : en:Tired of Earth
01:13:51.719 : en:Executive Decision
01:15:31.402 : en:Making a Killing
01:19:15.960 : en:Framed
01:23:47.856 : en:Rorschach Test
01:27:01.758 : en:Dogs Get Put Down
01:32:05.145 : en:He Doesn't See Me
01:37:48.946 : en:Tired of Being Afraid
01:41:09.814 : en:Night Riders
01:46:16.161 : en:Came and Get Me
01:49:19.428 : en:Prison Break
01:52:35.082 : en:How We Do Things
01:56:57.761 : en:Do It for Me
01:57:58.238 : en:Pyramid Scheme
02:02:40.228 : en:Shattering and Miraculous
02:09:31.555 : en:Antarctica Arrival
02:12:14.260 : en:World's Punishment
02:16:39.650 : en:Detonation
02:20:02.477 : en:Reassembled
02:23:28.558 : en:Keep Your Own Secrets
02:26:38.873 : en:Goodbyes
02:30:43.785 : en:Still America
02:35:22.563 : en:End Credits
Скриншоты ЗалилКачество: WEB-DLRip-720 от SuperMin
Жанр: фантастика, триллер, драма
Режиссер: Зак Снайдер
Звук: Русский (AC-3, 6ch, 640 kbps)
Английский (AC-3, 6ch, 640 kbps)

Если у вас возникли проблемы с закачкой Хранители / Watchmen (2009) WEB-DLRip 720p от SuperMin | Театральная версия | D | Open Matte, перейдите по ссылке - там вы найдете решение своей проблемы.

Категория: Зарубежные фильмы

 

Скачать Хранители / Watchmen (2009) WEB-DLRip 720p от SuperMin | Театральная версия | D | Open Matte бесплатно без регистрации

 

Информация
Посетители, находящиеся в группе Гости, не могут оставлять комментарии к данной публикации.
 
 
Скачать Хранители / Watchmen (2009) WEB-DLRip 720p от SuperMin | Театральная версия | D | Open Matte бесплатно без регистрацииCopyright © 2019 .