Скачать Один шанс на двоих / 1 chance sur 2 (1998) HDRip-AVC | P бесплатно без регистрации






Сюжет фильма:
Тебе - 20 лет, ты красива, с легкостью угоняешь машины и только что вышла из тюрьмы. Они - два претендента в твои папаши, легко собирающие «Магнум» с завязанными глазами и имеющие немалый опыт обращения со взрывчаткой. Когда вы вместе - вам не страшны ни французская полиция, ни русская мафия...



Год выхода: 1998
Жанр: боевик, драма, комедия
Продолжительность: 01:49:04
Выпущено: Франция
Перевод: Профессиональный многоголосный, закадровый [Пирамида]

Режиссер: Патрис Леконт
Оригинальное название: 1 chance sur 2
Аудио: 48 kHz, AC3, 3/2 (L,C,R,l,r) + LFE ch, ~384 kbps
-=DoMiNo=- ОценкаНикто ещё не поставил оценку КатегорияЗарубежные фильмы Раздают0 Качают1 Сидер замечен31-05-2019 14:19:12 (12 дня назад) Добавлен09-02-2017 7:19:01 (28 месяцев назад) Размер1.45 GB (1560089752 Bytes)Формат: MKV
Название: Один шанс на двоих
Субтитры: Русские (UTF-8)

M/IGeneral
Unique ID : 94466602249872421268615690025804694237 (0x47119B15D2E4B116035FC6E3E9A702DD)
Complete name : F:Один шанс на двоих.(1998).HDRIP-AVC.[-=DoMiNo=-].mkv
Format : Matroska
Format version : Version 4 / Version 2
File size : 1.45 GiB
Duration : 1 h 49 min
Overall bit rate : 1 907 kb/s
Movie name : Один шанс на двоих
Deion : Тебе — 20 лет, ты красива, с легкостью угоняешь машины и только что вышла из тюрьмы. Они — два претендента в твои папаши, легко собирающие «Магнум» с завязанными глазами и имеющие немалый опыт обращения со взрывчаткой. Когда вы вместе — вам не страшны ни французская полиция, ни русская мафия…
Writing application : XviD4PSP 7.0.352 DAILY
Writing library : Lavf57.41.100 / Lavf57.41.100
Attachments : poster.jpg
ACTORS : Жан-Поль Бельмондо, Ален Делон, Ванесса Паради, Эрик Дефосс, Александр Яковлев, Валерий Гатаев, Мишель Омон, Жак Роман, Филипп Маньян, Оливье Паренти, М’бембо, Гийом Рану, Арно Шурен, Луис Джейм Кортез, Vladislas Duport, Виталий Никитин, Бата, Пол Поджи, Бобби Паша, Сандрин Карон, Вероника Хьюберт, Винсент Роджер, Никита Кругли, Alexandre Vikouloff, Дафф, Дэниэл Мийо, Мари Неплас, Филипп Вие, Паола Сапоне, Винсент Скарито, Сильви Гранотье, Винсент Скименти, Паскаль Пербост, Бата Богичевич
COMPOSER : Александр Депла
COUNTRY : Франция
DATE : 1998
DIRECTOR : Патрис Леконт
ENCODING_INFO : MATROSKA,WEBM > MKV Произвольный / H264 > X264 VBR-2P 1520kbps Произвольный / AC3 > COPY
GENRE : боевик, драма, комедия, приключения
HD_VIDEO : 1
IMDB_RATING : 5.80
ITUNEXTC : ru-movie|16+|375|
MEDIA_TYPE : 9
ORIGINAL_ACTORS : Jean-Paul Belmondo, Alain Delon, Vanessa Paradis, Eric Defosse, Michel Aumont, Jacques Roman, Philippe Magnan, Olivier Parenty, Mbembo, Guillaume Rannou, Arnaud Churin, Luis Jaime Cortez, Vitali Nikitine, Bata, Paul Poggi, Bobby Pacha, Sandrine Caron, Véronique Hubert, Vincent Roger, Nikita Krougly, Duff, Daniel Millot, Marie Neplaz, Philippe Vieux, Paola Sapone, Vincent Scarito, Sylvie Granotier, Vincent Skimenti (в титрах: Vincent Schimenti), Pascal Perbost, Bata Bogicevic
ORIGINAL_TITLE : 1 chance sur 2
PRODUCER : Кристиан Фекнер, Эрве Трюффо
RATING : 7.000
WRITER : Патрик Девольф, Серж Фридман, Патрис Леконт, Жан-Марк Палан, Марк Пекас, Бруно Тардон

Video
ID : 1
Format : AVC
Format/Info : Advanced Video Codec
Format profile : High@L4.1
Format settings, CABAC : Yes
Format settings, ReFrames : 12 frames
Codec ID : V_MPEG4/ISO/AVC
Duration : 1 h 49 min
Bit rate : 1 520 kb/s
Width : 950 pixels
Height : 404 pixels
Display aspect ratio : 2.35:1
Frame rate mode : Constant
Frame rate : 24.000 FPS
Color space : YUV
Chroma subsampling : 4:2:0
Bit depth : 8 bits
Scan type : Progressive
Bits/(Pixel*Frame) : 0.165
Stream size : 1.13 GiB (78%)
Title : RIP_BY_-=DoMiNo=-
Writing library : x264 core 148 r2762M 90a61ec
Encoding settings : cabac=1 / ref=12 / deblock=1:-3:-3 / analyse=0x3:0x133 / me=umh / subme=11 / psy=1 / psy_rd=1.00:0.10 / mixed_ref=1 / me_range=48 / chroma_me=1 / trellis=2 / 8x8dct=1 / cqm=0 / deadzone=21,11 / fast_pskip=0 / chroma_qp_offset=-3 / threads=5 / lookahead_threads=1 / sliced_threads=0 / nr=0 / decimate=1 / interlaced=0 / bluray_compat=0 / constrained_intra=0 / bframes=11 / b_pyramid=2 / b_adapt=2 / b_bias=0 / direct=3 / weightb=1 / open_gop=0 / weightp=2 / keyint=240 / keyint_min=24 / scenecut=40 / intra_refresh=0 / rc=2pass / mbtree=0 / bitrate=1520 / ratetol=1.0 / qcomp=0.60 / qpmin=0 / qpmax=69 / qpstep=4 / cplxblur=20.0 / qblur=0.5 / ip_ratio=1.40 / pb_ratio=1.30 / aq=1:1.00
Language : English
Default : Yes
Forced : No
Color range : Limited
Matrix coefficients : BT.709
DURATION : 01:49:03.542000000

Audio
ID : 2
Format : AC-3
Format/Info : Audio Coding 3
Mode extension : CM (complete main)
Format settings, Endianness : Big
Codec ID : A_AC3
Duration : 1 h 49 min
Bit rate mode : Constant
Bit rate : 384 kb/s
Channel(s) : 6 channels
Channel positions : Front: L C R, Side: L R, LFE
Sampling rate : 48.0 kHz
Frame rate : 31.250 FPS (1536 spf)
Bit depth : 16 bits
Compression mode : Lossy
Stream size : 300 MiB (20%)
Title : Многоголосый закадровый, "Пирамида"
Language : Russian
Default : Yes
Forced : No
DURATION : 01:49:04.032000000

Text
ID : 3
Format : UTF-8
Codec ID : S_TEXT/UTF8
Codec ID/Info : UTF-8 Plain Text
Title : RUS
Language : Russian
Default : Yes
Forced : No
DURATION : 01:44:37.165000000

Menu
00:00:00.000 : :00:00:00.000
00:09:12.625 : :00:09:12.625
00:19:03.583 : :00:19:03.583
00:26:45.333 : :00:26:45.333
00:38:31.833 : :00:38:31.833
00:49:59.042 : :00:49:59.042
00:59:11.792 : :00:59:11.792
01:06:29.917 : :01:06:29.917
01:14:33.958 : :01:14:33.958
01:22:52.167 : :01:22:52.167
01:30:25.083 : :01:30:25.083
01:41:17.042 : :01:41:17.042
01:45:20.000 : :01:45:20.000Скриншоты ЗалилВидео: 950x404 at 24.000 fps, x264@L4.1, ~1520 kbps
В ролях: Жан-Поль Бельмондо, Ален Делон, Ванесса Паради, Эрик Дефосс, Александр Яковлев, Валерий Гатаев, Мишель Омон, Жак Роман, Филипп Маньян, Оливье Паренти

Если у вас возникли проблемы с закачкой Один шанс на двоих / 1 chance sur 2 (1998) HDRip-AVC | P, перейдите по ссылке - там вы найдете решение своей проблемы.

Категория: Зарубежные фильмы

 

Скачать Один шанс на двоих / 1 chance sur 2 (1998) HDRip-AVC | P бесплатно без регистрации

 

Информация
Посетители, находящиеся в группе Гости, не могут оставлять комментарии к данной публикации.
 
 
Скачать Один шанс на двоих / 1 chance sur 2 (1998) HDRip-AVC | P бесплатно без регистрацииCopyright © 2019 .