Скачать Космический Джэм / Space Jam (1996) BDRip 1080p бесплатно без регистрации






Видео: 1920x1080, 6786 Kbps, 23.976 fps
Название: Космический Джэм
В ролях: Майкл Джордан, Мэннер "Муки" Уошингтон, Ахмад Рашад, Шоун Брэдли, Ларри Джонсон, Маггзи Богус, Патрик Юинг, Чарлз Баркли

Страна: США
Перевод: Дублированный [Мост Видео]

Кодек: H264
Жанр: мультфильм, фантастика, комедия, приключения, семейный, спорт
Cубтитры: русские, английские

Скриншоты MIGeneral
Unique ID : 234819147994151313866386775328242838292 (0xB0A885DA65F624C69484AC8D98B4AB14)
Complete name : Космический Джэм.1996.BDRip.1080p.Rus.mkv
Format : Matroska
Format version : Version 2
File size : 4.37 GiB
Duration : 1h 27mn
Overall bit rate : 7 171 Kbps
Movie name : Космический Джэм.1996
Encoded date : UTC 2012-01-16 12:10:43
Writing application : mkvmerge v5.2.1 ('A Far Off Place') built on Jan 2 2012 23:21:10
Writing library : libebml v1.2.3 + libmatroska v1.3.0

Video
ID : 1
Format : AVC
Format/Info : Advanced Video Codec
Format profile : High@L4.1
Format settings, CABAC : Yes
Format settings, ReFrames : 4 frames
Codec ID : V_MPEG4/ISO/AVC
Duration : 1h 27mn
Bit rate : 6 786 Kbps
Width : 1 920 pixels
Height : 1 080 pixels
Display aspect ratio : 16:9
Frame rate mode : Variable
Frame rate : 23.976 fps
Color space : YUV
Chroma subsampling : 4:2:0
Bit depth : 8 bits
Scan type : Progressive
Bits/(Pixel*Frame) : 0.136
Stream size : 4.05 GiB (93%)
Title : Rip by Boriy
Writing library : x264 core 116 r2044M 392e762
Encoding settings : cabac=1 / ref=4 / deblock=1:0:0 / analyse=0x3:0x133 / me=umh / subme=10 / psy=1 / psy_rd=1.00:0.10 / mixed_ref=1 / me_range=32 / chroma_me=1 / trellis=2 / 8x8dct=1 / cqm=0 / deadzone=21,11 / fast_pskip=0 / chroma_qp_offset=-3 / threads=12 / sliced_threads=0 / nr=0 / decimate=1 / interlaced=0 / bluray_compat=0 / constrained_intra=0 / bframes=5 / b_pyramid=2 / b_adapt=2 / b_bias=0 / direct=3 / weightb=1 / open_gop=0 / weightp=2 / keyint=240 / keyint_min=24 / scenecut=40 / intra_refresh=0 / rc_lookahead=60 / rc=2pass / mbtree=1 / bitrate=6786 / ratetol=1.0 / qcomp=0.60 / qpmin=0 / qpmax=69 / qpstep=4 / cplxblur=20.0 / qblur=0.5 / ip_ratio=1.40 / aq=1:1.00
Language : English
Default : Yes
Forced : No

Audio
ID : 2
Format : AC-3
Format/Info : Audio Coding 3
Mode extension : CM (complete main)
Codec ID : A_AC3
Duration : 1h 27mn
Bit rate mode : Constant
Bit rate : 384 Kbps
Channel(s) : 6 channels
Channel positions : Front: L C R, Side: L R, LFE
Sampling rate : 48.0 KHz
Bit depth : 16 bits
Compression mode : Lossy
Stream size : 240 MiB (5%)
Title : Дубляж
Language : Russian
Default : Yes
Forced : No

Text #1
ID : 3
Format : UTF-8
Codec ID : S_TEXT/UTF8
Codec ID/Info : UTF-8 Plain Text
Language : Russian
Default : No
Forced : No

Text #2
ID : 4
Format : UTF-8
Codec ID : S_TEXT/UTF8
Codec ID/Info : UTF-8 Plain Text
Language : English
Default : No
Forced : No

Menu
00:00:00.000 : en:00:00:00.000
00:02:22.642 : en:00:02:22.642
00:05:54.854 : en:00:05:54.854
00:09:01.124 : en:00:09:01.124
00:11:35.945 : en:00:11:35.945
00:14:09.140 : en:00:14:09.140
00:18:14.468 : en:00:18:14.468
00:21:36.629 : en:00:21:36.629
00:24:26.340 : en:00:24:26.340
00:25:47.087 : en:00:25:47.087
00:27:45.414 : en:00:27:45.414
00:30:26.533 : en:00:30:26.533
00:31:19.711 : en:00:31:19.711
00:34:05.001 : en:00:34:05.001
00:36:59.300 : en:00:36:59.300
00:38:11.915 : en:00:38:11.915
00:39:39.419 : en:00:39:39.419
00:42:11.070 : en:00:42:11.070
00:45:54.085 : en:00:45:54.085
00:46:39.755 : en:00:46:39.755
00:47:11.787 : en:00:47:11.787
00:48:05.800 : en:00:48:05.800
00:50:01.040 : en:00:50:01.040
00:53:40.884 : en:00:53:40.884
00:56:56.747 : en:00:56:56.747
00:57:56.973 : en:00:57:56.973
01:00:14.069 : en:01:00:14.069
01:02:27.577 : en:01:02:27.577
01:04:09.679 : en:01:04:09.679
01:06:06.421 : en:01:06:06.421
01:07:42.475 : en:01:07:42.475
01:09:32.794 : en:01:09:32.794
01:11:49.388 : en:01:11:49.388
01:12:30.304 : en:01:12:30.304
01:14:16.452 : en:01:14:16.452
01:15:25.896 : en:01:15:25.896
01:18:23.490 : en:01:18:23.490
01:26:53.208 : en:01:26:53.208 Залилboriy Оценка10 из 10 (4 голосов, самая низкая оценка - 10, самая высокая - 10) КатегорияЗарубежные фильмы Раздают9 Качают1 Сидер замечен12-06-2019 22:19:12 (4 минуты назад) Добавлен06-02-2012 20:23:23 (89 месяцев назад) Размер4.37 GB (4697254870 Bytes)Продолжительность: 01:27:20
О фильме: Мультмонстры с планеты "Гора придурков" вторгаются на Землю, желая захватить персонажей популярного анимационного сериала "Looney Toons". Земные зверюшки во главе с кроликом Багзом Банни предлагают на спор сыграть в баскетбол, привлекая на свою сторону суперзвезду Майкла Джордана.



Режиссер: Джо Питка / Joe Pytka
Оригинальное название: Space Jam
Звук: 48 kHz, AC3, 6c, 384 kbps
Год выхода: 1996
Качество: BDRip 1080p

Если у вас возникли проблемы с закачкой Космический Джэм / Space Jam (1996) BDRip 1080p, перейдите по ссылке - там вы найдете решение своей проблемы.

Категория: Зарубежные фильмы

 

Скачать Космический Джэм / Space Jam (1996) BDRip 1080p бесплатно без регистрации

 

Информация
Посетители, находящиеся в группе Гости, не могут оставлять комментарии к данной публикации.
 
 
Скачать Космический Джэм / Space Jam (1996) BDRip 1080p бесплатно без регистрацииCopyright © 2019 .