Скачать Умирающий свет / Dying of the Light (2014) WEB-DLRip-AVC | Есарев бесплатно без регистрации








Информация о фильме
Оригинальное название: Dying of the Light
Субтитры: Нет


Видео: 1800 kb/s, 1024x436
-=DoMiNo=- Оценка7 из 10 (1 голосов, самая низкая оценка - 7, самая высокая - 7) КатегорияЗарубежные фильмы Раздают0 Качают1 Сидер замечен01-05-2019 20:19:07 (1 месяц назад) Добавлен03-01-2015 20:38:10 (54 месяца назад) Размер1.43 GB (1540739061 Bytes)В ролях: Николас Кейдж, Антон Ельчин, Александр Карим, Ирен Жакоб, Аймен Хамдуши, Клавдий Питерс, Адетомива Едун, Роберт Дж. Слэйд, Дерек Эзенагу, Джефф Френсис


Аудио: AC3, 384 kb/s (6 ch)



M/IGeneral
Unique ID : 7506633502047488969636655505388195384 (0x5A5B99B3182B8A3E30F547FD479CE38)
Complete name : F:Умирающий свет.2014.WEB-DLRIP-AVC.[-=DoMiNo=-].mkv
Format : Matroska
Format version : Version 4 / Version 2
File size : 1.43 GiB
Duration : 1h 34mn
Overall bit rate : 2 183 Kbps
Writing application : XviD4PSP 7.0 / 55.48.100
Writing library : XviD4PSP 7.0 / 55.48.100
DATE : -1

Video
ID : 1
Format : AVC
Format/Info : Advanced Video Codec
Format profile : High@L4.1
Format settings, CABAC : Yes
Format settings, ReFrames : 12 frames
Codec ID : V_MPEG4/ISO/AVC
Duration : 1h 34mn
Bit rate : 1 800 Kbps
Width : 1 024 pixels
Height : 436 pixels
Display aspect ratio : 2.35:1
Frame rate mode : Constant
Frame rate : 23.976 fps
Color space : YUV
Chroma subsampling : 4:2:0
Bit depth : 8 bits
Scan type : Progressive
Bits/(Pixel*Frame) : 0.168
Stream size : 1.15 GiB (80%)
Writing library : x264 core 142 r2491M 24e4fed
Encoding settings : cabac=1 / ref=12 / deblock=1:-3:-3 / analyse=0x3:0x133 / me=umh / subme=11 / psy=1 / psy_rd=1,00:0,70 / mixed_ref=1 / me_range=32 / chroma_me=1 / trellis=2 / 8x8dct=1 / cqm=0 / deadzone=21,11 / fast_pskip=0 / chroma_qp_offset=-3 / threads=16 / lookahead_threads=3 / sliced_threads=0 / nr=0 / decimate=1 / interlaced=0 / bluray_compat=0 / constrained_intra=0 / bframes=11 / b_pyramid=2 / b_adapt=2 / b_bias=0 / direct=3 / weightb=1 / open_gop=0 / weightp=2 / keyint=230 / keyint_min=23 / scenecut=40 / intra_refresh=0 / rc=2pass / mbtree=0 / bitrate=1800 / ratetol=1,0 / qcomp=0,60 / qpmin=1 / qpmax=69 / qpstep=4 / cplxblur=20,0 / qblur=0,5 / ip_ratio=1,40 / pb_ratio=1,30 / aq=1:1,00
Default : Yes
Forced : No
Color primaries : BT.709
Transfer characteristics : BT.709
Matrix coefficients : BT.709
Color range : Limited
DATE : -1

Audio
ID : 2
Format : AC-3
Format/Info : Audio Coding 3
Mode extension : CM (complete main)
Format settings, Endianness : Big
Codec ID : A_AC3
Duration : 1h 34mn
Bit rate mode : Constant
Bit rate : 384 Kbps
Channel(s) : 6 channels
Channel positions : Front: L C R, Side: L R, LFE
Sampling rate : 48.0 KHz
Bit depth : 16 bits
Compression mode : Lossy
Stream size : 258 MiB (18%)
Title : Есарев
Language : Russian
Default : Yes
Forced : No
DATE : -1

Menu
00:00:00.000 : :Chapter 1
00:03:52.065 : :Chapter 2
00:13:19.090 : :Chapter 3
00:24:47.069 : :Chapter 4
00:34:56.052 : :Chapter 5
00:46:17.066 : :Chapter 6
00:56:56.121 : :Chapter 7
01:07:22.080 : :Chapter 8
01:20:22.067 : :Chapter 9
01:29:56.057 : :Chapter 10
ЗалилГод выпуска: 2014
Выпущено: США
Продолжительность: 01:34:05
Режиссер: Пол Шредер
Жанр: триллер, драма
Озвучивание: Авторское (одноголосое) [Дмитрий Есарев]
Формат: MKV
О фильме:
Эван Лэйк, выполняющий канцелярскую работу сотрудник ЦРУ, вынужден подать в отставку из-за начавших у него проявляться признаков сумасшествия. В это же время он обнаруживает, что подвергавший его мукам Мухаммед Банир, который уже два десятка лет считается мертвым, на самом деле жив. Заручившись помощью молодого агента, Эван отправляется на поиски Банира…



Качество: WEB-DLRip-AVC
Название: Умирающий свет

Если у вас возникли проблемы с закачкой Умирающий свет / Dying of the Light (2014) WEB-DLRip-AVC | Есарев, перейдите по ссылке - там вы найдете решение своей проблемы.

Категория: Зарубежные фильмы

 

Скачать Умирающий свет / Dying of the Light (2014) WEB-DLRip-AVC | Есарев бесплатно без регистрации

 

Информация
Посетители, находящиеся в группе Гости, не могут оставлять комментарии к данной публикации.
 
 
Скачать Умирающий свет / Dying of the Light (2014) WEB-DLRip-AVC | Есарев бесплатно без регистрацииCopyright © 2019 .