Скачать Капитан Хайберских стрелков / King of the Khyber Rifles (1953) DVDRip-AVC | L1 бесплатно без регистрации









Информация о фильме
Актеры: Тайрон Пауэр, Терри Мур, Майкл Ренни, Джон Джастин, Гай Рольф, Ричард Уайлер, Мюррэй Мэтисон, Фрэнк ДеКова, Арджентина Брунетти, Суджата Рубен

Перевод: Любительский одноголосый закадровый (Kolobroad)
Субтитры: Русские

Режиссер: Генри Кинг
Производство: США / 20th Century Fox Film Corporation
Аудио 1: Русский, AC3, 2 ch, 192 Kbps, 48.0 kHz
Видео: AVC/H.264, 720x288, ~1788 Kbps
-=DoMiNo=- Оценка10 из 10 (1 голосов, самая низкая оценка - 10, самая высокая - 10) КатегорияЗарубежные фильмы Раздают2 Качают0 Сидер замечен12-06-2019 21:19:13 (4 минуты назад) Добавлен22-08-2017 9:16:56 (22 месяца назад) Размер1.46 GB (1562552331 Bytes)Качество видео: DVDRip-AVC
Продюсер: Фрэнк П. Розенберг
Жанр: Драма, Мелодрама, Приключения
Описание:
Сын английского офицера и мусульманской танцовщицы, после гибели своих родителей воспитывался в семье их единственного друга, афганского торговца. Алан Кинг в чине капитана возвращается в Пешавар, где становится во главе подразделения Хайберских стрелков, набираемых из афганцев. Чопорное английское колониальное общество не принимает его в свой круг. Он оказывается в том же положении, как и его родители, семьи которых после их свадьбы отреклись от них. Алан спасает от похищения дочь командующего английским гарнизоном, которая влюбляется в него…



Релиз от: Охрана (NNMCLUB)


M/iGeneral
Unique ID : 246689104022586107112613203289849357699 (0xB99697DE84C856EAA3FBBD146D326583)
Complete name : F:DownloadsКапитан Хайберских стрелков. 1953. NNMCLUB.mkv
Format : Matroska
Format version : Version 4 / Version 2
File size : 1.46 GiB
Duration : 1h 35mn
Overall bit rate : 2 174 Kbps
Encoded date : UTC 2017-08-04 09:21:22
Writing application : mkvmerge v7.0.0 ('Where We Going') 32bit built on Jun 9 2014 15:08:34
Writing library : libebml v1.3.0 + libmatroska v1.4.1
DURATION : 01:34:47.754000000
NUMBER_OF_FRAMES : 751
NUMBER_OF_BYTES : 59134
_STATISTICS_WRITING_APP : mkvmerge v7.0.0 ('Where We Going') 32bit built on Jun 9 2014 15:08:34
_STATISTICS_WRITING_DATE_UTC : 2017-08-04 09:21:22
_STATISTICS_TAGS : BPS DURATION NUMBER_OF_FRAMES NUMBER_OF_BYTES

Video
ID : 1
Format : AVC
Format/Info : Advanced Video Codec
Format profile : High@L4.1
Format settings, CABAC : Yes
Format settings, ReFrames : 12 frames
Codec ID : V_MPEG4/ISO/AVC
Duration : 1h 35mn
Bit rate : 1 788 Kbps
Width : 720 pixels
Height : 288 pixels
Display aspect ratio : 2.500
Frame rate mode : Constant
Frame rate : 25.000 fps
Color space : YUV
Chroma subsampling : 4:2:0
Bit depth : 8 bits
Scan type : Progressive
Bits/(Pixel*Frame) : 0.345
Stream size : 1.17 GiB (80%)
Title : King of the Khyber Rifles
Writing library : x264 core 125 r2208 d9d2288
Encoding settings : cabac=1 / ref=12 / deblock=1:-1:-1 / analyse=0x3:0x133 / me=umh / subme=10 / psy=1 / psy_rd=1.00:0.10 / mixed_ref=1 / me_range=32 / chroma_me=1 / trellis=2 / 8x8dct=1 / cqm=0 / deadzone=21,11 / fast_pskip=0 / chroma_qp_offset=-3 / threads=6 / lookahead_threads=1 / sliced_threads=0 / nr=0 / decimate=0 / interlaced=0 / bluray_compat=0 / constrained_intra=0 / bframes=7 / b_pyramid=2 / b_adapt=2 / b_bias=0 / direct=3 / weightb=1 / open_gop=0 / weightp=2 / keyint=250 / keyint_min=25 / scenecut=40 / intra_refresh=0 / rc_lookahead=60 / rc=2pass / mbtree=1 / bitrate=1788 / ratetol=1.0 / qcomp=0.60 / qpmin=0 / qpmax=69 / qpstep=4 / cplxblur=20.0 / qblur=0.5 / ip_ratio=1.40 / aq=1:1.00
Language : English
Default : Yes
Forced : No

Audio #1
ID : 2
Format : AC-3
Format/Info : Audio Coding 3
Mode extension : CM (complete main)
Format settings, Endianness : Big
Codec ID : A_AC3
Duration : 1h 35mn
Bit rate mode : Constant
Bit rate : 192 Kbps
Channel(s) : 2 channels
Channel positions : Front: L R
Sampling rate : 48.0 KHz
Bit depth : 16 bits
Compression mode : Lossy
Stream size : 132 MiB (9%)
Title : Одноголосый закадровый
Language : Russian
Default : Yes
Forced : No

Audio #2
ID : 3
Format : AC-3
Format/Info : Audio Coding 3
Mode extension : CM (complete main)
Format settings, Endianness : Big
Codec ID : A_AC3
Duration : 1h 35mn
Bit rate mode : Constant
Bit rate : 192 Kbps
Channel(s) : 2 channels
Channel positions : Front: L R
Sampling rate : 48.0 KHz
Bit depth : 16 bits
Compression mode : Lossy
Stream size : 132 MiB (9%)
Title : Оригинал
Language : English
Default : No
Forced : No

Text
ID : 4
Format : UTF-8
Codec ID : S_TEXT/UTF8
Codec ID/Info : UTF-8 Plain Text
Title : SRT
Language : Russian
Default : No
Forced : NoСкриншоты ЗалилПродолжительность: 01:35:49
Аудио 2: Английский, AC3, 2 ch, 192 Kbps, 48.0 kHz

___

Если у вас возникли проблемы с закачкой Капитан Хайберских стрелков / King of the Khyber Rifles (1953) DVDRip-AVC | L1, перейдите по ссылке - там вы найдете решение своей проблемы.

Категория: Зарубежные фильмы

 

Скачать Капитан Хайберских стрелков / King of the Khyber Rifles (1953) DVDRip-AVC | L1 бесплатно без регистрации

 

Информация
Посетители, находящиеся в группе Гости, не могут оставлять комментарии к данной публикации.
 
 
Скачать Капитан Хайберских стрелков / King of the Khyber Rifles (1953) DVDRip-AVC | L1 бесплатно без регистрацииCopyright © 2019 .