Скачать Джиа / Gia (1998) BDRip 1080p | Unrated бесплатно без регистрации






О фильме: История взлета и падения Джии Каранджи, сумевшей в одночасье перевернуть представление о том, как должна себя вести фотомодель на подиуме. Джиа Мария Каранджи родилась в Филадельфии в 1960 году. Выросшая в неблагополучной семье, Джиа в 18 лет отправляется в Нью-Йорк конца 70-х годов, чтобы сделать головокружительную карьеру в модельном бизнесе. Менее чем за 10 лет она прошла путь от начинающей звездочки до супермодели, которую все жаждут заполучить на свои показы. И хотя Джию везде преследовал призрак секса, для красотки он мало что значил. Единственной и незаменимой возлюбленной для нее стала визажистка Линда. Однако прочности их любовного союза мешал не только бешеный темперамент Джии, но и банальные злоупотребления наркотиками.

В ролях: Анджелина Джоли, Элизабет Митчелл, Эрик Майкл Коул, Кайли Трэвис, Луис Гьямбалво, Джон Консидайн, Скотт Коэн, Эдмунд Жене, Мерседес Руэл, Фэй Данауэй, Мила Кунис

Язык (перевод):
1) русский двухголосый закадровый
2) русский двухголосый закадровый
3) оригинальная английская дорожка
Аудио 3: DTS 5.1, 48 kHz, 1509 kbps, 16-bitMediaInfoКод:
General
Complete name : X: -= Фильмы =-Джиа (1998. Gia).mkv
Format : Matroska
File size : 11.3 GiB
Duration : 2h 5mn
Overall bit rate : 12.9 Mbps
Movie name : Gia.Unrated.1998.BluRay.1080p.x264.DTS.MySilu
Encoded date : UTC 2011-11-01 03:43:12
Writing application : mkvmerge v4.9.1 ('Ich will') сборка от Jul 11 2011 23:53:15
Writing library : libebml v1.2.1 + libmatroska v1.1.1

Video
ID : 1
Format : AVC
Format/Info : Advanced Video Codec
Format profile : High@L4.1
Format settings, CABAC : Yes
Format settings, ReFrames : 4 frames
Muxing mode : Container profile=Unknown@4.1
Codec ID : V_MPEG4/ISO/AVC
Duration : 2h 5mn
Bit rate : 11.0 Mbps
Width : 1 920 pixels
Height : 1 080 pixels
Display aspect ratio : 16:9
Frame rate : 23.976 fps
Color space : YUV
Chroma subsampling : 4:2:0
Bit depth : 8 bits
Scan type : Progressive
Bits/(Pixel*Frame) : 0.221
Stream size : 9.39 GiB (83%)
Title : Gia.Unrated.1998.BluRay.1080p.x264.DTS.MySilu
Writing library : x264 core 118 r2085 8a62835
Encoding settings : cabac=1 / ref=4 / deblock=1:-2:-2 / analyse=0x3:0x113 / me=umh / subme=10 / psy=1 / psy_rd=1.20:0.20 / mixed_ref=1 / me_range=32 / chroma_me=1 / trellis=2 / 8x8dct=1 / cqm=0 / deadzone=21,11 / fast_pskip=0 / chroma_qp_offset=-3 / threads=9 / sliced_threads=0 / nr=0 / decimate=0 / interlaced=0 / bluray_compat=0 / constrained_intra=0 / bframes=5 / b_pyramid=2 / b_adapt=2 / b_bias=0 / direct=3 / weightb=1 / open_gop=0 / weightp=2 / keyint=250 / keyint_min=2 / scenecut=40 / intra_refresh=0 / rc_lookahead=72 / rc=2pass / mbtree=1 / bitrate=11000 / ratetol=1.0 / qcomp=0.60 / qpmin=10 / qpmax=51 / qpstep=4 / cplxblur=20.0 / qblur=0.5 / vbv_maxrate=38000 / vbv_bufsize=38000 / nal_hrd=none / ip_ratio=1.40 / aq=1:1.00
Language : English

Audio #1
ID : 2
Format : AC-3
Format/Info : Audio Coding 3
Mode extension : CM (complete main)
Codec ID : A_AC3
Duration : 2h 5mn
Bit rate mode : Constant
Bit rate : 192 Kbps
Channel(s) : 2 channels
Channel positions : Front: L R
Sampling rate : 48.0 KHz
Bit depth : 16 bits
Stream size : 172 MiB (1%)
Title : DVO #1 (from vhs)
Language : Russian

Audio #2
ID : 3
Format : AC-3
Format/Info : Audio Coding 3
Mode extension : CM (complete main)
Codec ID : A_AC3
Duration : 2h 5mn
Bit rate mode : Constant
Bit rate : 192 Kbps
Channel(s) : 2 channels
Channel positions : Front: L R
Sampling rate : 48.0 KHz
Bit depth : 16 bits
Stream size : 172 MiB (1%)
Title : DVO #2
Language : Russian

Audio #3
ID : 4
Format : DTS
Format/Info : Digital Theater Systems
Codec ID : A_DTS
Duration : 2h 5mn
Bit rate mode : Constant
Bit rate : 1 510 Kbps
Channel(s) : 6 channels
Channel positions : Front: L C R, Side: L R, LFE
Sampling rate : 48.0 KHz
Bit depth : 16 bits
Stream size : 1.32 GiB (12%)
Language : English

Text #1
ID : 5
Format : UTF-8
Codec ID : S_TEXT/UTF8
Codec ID/Info : UTF-8 Plain Text
Language : Russian

Text #2
ID : 6
Format : UTF-8
Codec ID : S_TEXT/UTF8
Codec ID/Info : UTF-8 Plain Text
Language : English

Menu
00:00:00.000 : en:00:00:00.000
00:05:38.338 : en:00:05:38.338
00:15:26.801 : en:00:15:26.801
00:21:31.957 : en:00:21:31.957
00:31:38.647 : en:00:31:38.647
00:36:43.910 : en:00:36:43.910
00:46:22.238 : en:00:46:22.238
00:56:36.476 : en:00:56:36.476
01:04:55.600 : en:01:04:55.600
01:15:12.633 : en:01:15:12.633
01:23:40.182 : en:01:23:40.182
01:33:43.117 : en:01:33:43.117
01:41:02.390 : en:01:41:02.390
01:47:55.469 : en:01:47:55.469
01:58:27.726 : en:01:58:27.726
Скриншоты ЗалилФормат: MKV

Качество: BDRip 1080p
Видео: MPEG-4 AVC, 11.0 Mbps, 1920x1080p, 23.976 fps, 16:9, High Profile 4.1
Название: Джиа
~Relizer~ Оценка10 из 10 (2 голосов, самая низкая оценка - 10, самая высокая - 10) КатегорияЗарубежные фильмы Раздают2 Качают0 Сидер замечен12-06-2019 20:19:13 (4 минуты назад) Добавлен01-11-2011 15:51:19 (93 месяца назад) Размер11.27 GB (12096036249 Bytes)Год выхода: 1998
Субтитры: русские, английские
Жанр: драма, мелодрама, биография, эротика
Информация о файле:
Оригинальное название: Gia
Режиссер: Майкл Кристофер / Michael Cristofer
Аудио 1: Dolby Digital 2.0, 48 kHz, 192 kbps
Страна: США
Аудио 2: Dolby Digital 2.0, 48 kHz, 192 kbps
Продолжительность: 02:05:07

Если у вас возникли проблемы с закачкой Джиа / Gia (1998) BDRip 1080p | Unrated, перейдите по ссылке - там вы найдете решение своей проблемы.

Категория: Зарубежные фильмы

 

Скачать Джиа / Gia (1998) BDRip 1080p | Unrated бесплатно без регистрации

 

Информация
Посетители, находящиеся в группе Гости, не могут оставлять комментарии к данной публикации.
 
 
Скачать Джиа / Gia (1998) BDRip 1080p | Unrated бесплатно без регистрацииCopyright © 2019 .