Скачать Пена дней / L'écume des jours (2013) BDRip 1080p | D | Лицензия бесплатно без регистрации






Информация о фильме
Качество: BDRip 1080p
Аудио: Русский (AC3, 6 ch, 448 Кбит/с), французский (DTS, 6 ch, 1510 Кбит/с)
Скрытый текст General
Complete name : L.Ecume.Des.Jours.2013.x264.BDRip.1080p.mkv
Format : Matroska
Format version : Version 2
File size : 9.15 GiB
Duration : 2h 10mn
Overall bit rate : 10.0 Mbps
Encoded date : UTC 2013-09-10 23:01:08
Writing application : mkvmerge v5.8.0 ('No Sleep / Pillow') built on Sep 2 2012 15:37:04
Writing library : libebml v1.2.3 + libmatroska v1.3.0

Video
ID : 1
Format : AVC
Format/Info : Advanced Video Codec
Format profile : High@L4.1
Format settings, CABAC : Yes
Format settings, ReFrames : 4 frames
Codec ID : V_MPEG4/ISO/AVC
Duration : 2h 10mn
Bit rate : 8 060 Kbps
Width : 1 920 pixels
Height : 1 040 pixels
Display aspect ratio : 1.85:1
Frame rate mode : Constant
Frame rate : 24.000 fps
Color space : YUV
Chroma subsampling : 4:2:0
Bit depth : 8 bits
Scan type : Progressive
Bits/(Pixel*Frame) : 0.168
Stream size : 7.18 GiB (78%)
Writing library : x264 core 133 r2334 a3ac64b
Encoding settings : cabac=1 / ref=4 / deblock=1:0:0 / analyse=0x3:0x113 / me=umh / subme=8 / psy=1 / psy_rd=1.00:0.00 / mixed_ref=1 / me_range=16 / chroma_me=1 / trellis=1 / 8x8dct=1 / cqm=0 / deadzone=21,11 / fast_pskip=1 / chroma_qp_offset=-2 / threads=12 / lookahead_threads=2 / sliced_threads=0 / nr=0 / decimate=1 / interlaced=0 / bluray_compat=0 / constrained_intra=0 / bframes=3 / b_pyramid=2 / b_adapt=2 / b_bias=0 / direct=3 / weightb=1 / open_gop=0 / weightp=2 / keyint=240 / keyint_min=24 / scenecut=40 / intra_refresh=0 / rc_lookahead=50 / rc=2pass / mbtree=1 / bitrate=8060 / ratetol=1.0 / qcomp=0.60 / qpmin=0 / qpmax=69 / qpstep=4 / cplxblur=20.0 / qblur=0.5 / ip_ratio=1.40 / aq=1:1.00
Language : French
Default : Yes
Forced : Yes

Audio #1
ID : 2
Format : AC-3
Format/Info : Audio Coding 3
Mode extension : CM (complete main)
Format settings, Endianness : Big
Codec ID : A_AC3
Duration : 2h 10mn
Bit rate mode : Constant
Bit rate : 448 Kbps
Channel(s) : 6 channels
Channel positions : Front: L C R, Side: L R, LFE
Sampling rate : 48.0 KHz
Bit depth : 16 bits
Compression mode : Lossy
Stream size : 419 MiB (4%)
Language : Russian
Default : Yes
Forced : Yes

Audio #2
ID : 3
Format : DTS
Format/Info : Digital Theater Systems
Mode : 16
Format settings, Endianness : Big
Codec ID : A_DTS
Duration : 2h 10mn
Bit rate mode : Constant
Bit rate : 1 509 Kbps
Channel(s) : 6 channels
Channel positions : Front: L C R, Side: L R, LFE
Sampling rate : 48.0 KHz
Bit depth : 24 bits
Compression mode : Lossy
Stream size : 1.38 GiB (15%)
Language : French
Default : No
Forced : No

Text
ID : 4
Format : UTF-8
Codec ID : S_TEXT/UTF8
Codec ID/Info : UTF-8 Plain Text
Language : French
Default : No
Forced : No

Menu
00:00:00.000 : en:00:00:00.000
00:07:35.250 : en:00:07:35.250
00:15:56.708 : en:00:15:56.708
00:24:37.667 : en:00:24:37.667
00:35:31.958 : en:00:35:31.958
00:42:59.125 : en:00:42:59.125
00:54:42.042 : en:00:54:42.042
01:05:12.083 : en:01:05:12.083
01:15:56.833 : en:01:15:56.833
01:24:10.542 : en:01:24:10.542
01:33:21.000 : en:01:33:21.000
01:45:31.375 : en:01:45:31.375
01:56:35.750 : en:01:56:35.750
02:04:30.917 : en:02:04:30.917

ЗалилФормат: MKV
[Лицензия]
В ролях: Ромэн Дюри, Одри Тоту, Омар Си, Шарлотта Лебон, Филипп Торретон, Винсент Роттирс, Лорент Лэфитт, Зинедин Суалам, Ален Шаба, Марина Розенмен, Мэтью Полус

История любви, разворачивающаяся в фантастическом мире, где влюбленные летают на свидания в розовых тучках и танцуют на потолке, где в коридоре обычной квартиры живет солнце, а мыши-домоправители ведут беседы с кошками, где цветы прорастают внутри людей и тепло человеческого сердца способно уничтожить самое опасное оружие.




DGEKIGAN ОценкаНикто ещё не поставил оценку КатегорияЗарубежные фильмы Раздают0 Качают0 Сидер замечен11-06-2019 13:19:12 (1 день назад) Добавлен22-09-2013 10:38:35 (70 месяцев назад) Размер9.15 GB (9825331073 Bytes)Жанр: Фэнтези, мелодрама, драма
Продолжительность: 01:59:39
Оригинальное название: L'écume des jours
Название: Пена дней
Выпущено: Франция, Бельгия, Angoa-Agicoa, Anton Capital Entertainment (ACE), Belgacom, Brio Films, Canal+ [fr], Centre National de la Cinématographie (CNC), Ciné...
Перевод: ДублированныйДополнительно: Сохранены оригинальные чаптеры как на Blu-ray

Режиссер: Мишель Гондри
Видео: MPEG-4 AVC, 8060 Кбит/с, 1920x1040
Год выпуска: 2013
Субтитры: Французские

Если у вас возникли проблемы с закачкой Пена дней / L'écume des jours (2013) BDRip 1080p | D | Лицензия, перейдите по ссылке - там вы найдете решение своей проблемы.

Категория: Зарубежные фильмы

 

Скачать Пена дней / L'écume des jours (2013) BDRip 1080p | D | Лицензия бесплатно без регистрации

 

Информация
Посетители, находящиеся в группе Гости, не могут оставлять комментарии к данной публикации.
 
 
Скачать Пена дней / L'écume des jours (2013) BDRip 1080p | D | Лицензия бесплатно без регистрацииCopyright © 2019 .