Скачать В полосе прибоя (1990) SATRip от New-Team бесплатно без регистрации





SATRip
Страна: СССР
Описание:
В провинциальном городе совершено вооруженное нападение на инкассаторов, в перестрелке погибает сотрудник МВД. Из Москвы прибывает следователь, оказавшийся близким другом погибшего. Жестокость совершенного убийства наводит его на мысль о возможной мести. Городские органы не рады этому приезду и стремятся как можно быстрей завершить дело, хотя бы и ценой ошибки. Но задача друга найти истинного убийцу, даже, несмотря на то, что расследование ему приходится вести практически одному.



Перевод:Не требуется
AVPStudio ОценкаНикто ещё не поставил оценку КатегорияНаши фильмы Раздают2 Качают0 Сидер замечен12-06-2019 12:19:12 (16 минут назад) Добавлен27-05-2019 12:18:01 (16 дней назад) Размер745.51 MB (781721600 Bytes)В ролях:
Владимир Кузнецов, Андрей Болтнев, Ирина Цывина, Валерий Баринов, Юрий Астафьев, Татьяна Панкова, Владимир Кабалин, Рим Аюпов, Елена Драпеко, Валентина Березуцкая, Изиль Заблудовский, Валерий Лысенков, Леонид Неведомский, Семен Фурман...

Жанр: боевик
Продолжительность: 01:23:41

Аудио: 48 kHz, MP3 2.0, 128 kbps

Год выпуска: 1990
Оригинальная аудиодорожка: русский

DVB
Раздача от:
MediaInfo
Общее
Полное имя : V.polose.priboya.1990.SATRip-745_[New-team]_by_AVP_Studio.avi
Формат : AVI
Формат/Информация : Audio Video Interleave
Размер файла : 746 Мбайт
Продолжительность : 1 ч. 23 м.
Общий поток : 1243 Кбит/сек
Программа кодирования : VirtualDubModRus 1.5.10.2 (build 2542/release)
Библиотека кодирования : VirtualDubMod build 2542/release

Видео
Идентификатор : 0
Формат : MPEG-4 Visual
Профиль формата : Advanced Simple@L5
Параметр BVOP формата : 1
Параметр QPel формата : Нет
Параметр GMC формата : Без точки перехода
Параметр матрицы формата : Выборочная
Идентификатор кодека : XVID
Идентификатор кодека/Подсказка : XviD
Продолжительность : 1 ч. 23 м.
Битрейт : 1106 Кбит/сек
Ширина : 704 пикселя
Высота : 400 пикселей
Соотношение сторон : 16:9
Частота кадров : 25,000 кадров/сек
Цветовое пространство : YUV
Субдискретизация насыщенности : 4:2:0
Битовая глубина : 8 бит
Тип развёртки : Прогрессивная
Метод сжатия : С потерями
Бит/(Пиксели*Кадры) : 0.157
Размер потока : 663 Мбайт (89%)
Библиотека кодирования : XviD 73

Аудио
Идентификатор : 1
Формат : MPEG Audio
Версия формата : Version 1
Профиль формата : Layer 3
Идентификатор кодека : 55
Идентификатор кодека/Подсказка : MP3
Продолжительность : 1 ч. 23 м.
Вид битрейта : Постоянный
Битрейт : 128 Кбит/сек
Каналы : 2 канала
Частота : 48,0 КГц
Метод сжатия : С потерями
Размер потока : 76,7 Мбайт (10%)
Выравнивание : Соединение по промежуткам
Продолжительность промежутка : 40 мс. (1,00 видеокадр)
Время предзагрузки промежутка : 504 мс.
Библиотека кодирования : LAME3.99r
Настройки программы : -m s -V 4 -q 2 -lowpass 17 -b 128

Скриншоты

ЗалилРежиссер: Ольгерд Воронцов

Источник:Формат видео: AVI

Производство: Свердловская киностудия

Видео: 704x400 (16:9), 25 fps, XviD ~ 1106 kbps avg, 0.157 bit/pixel
Качество видео:Cубтитры: нет

Если у вас возникли проблемы с закачкой В полосе прибоя (1990) SATRip от New-Team, перейдите по ссылке - там вы найдете решение своей проблемы.

Категория: Наши фильмы

 

Скачать В полосе прибоя (1990) SATRip от New-Team бесплатно без регистрации

 

Информация
Посетители, находящиеся в группе Гости, не могут оставлять комментарии к данной публикации.
 
 
Скачать В полосе прибоя (1990) SATRip от New-Team бесплатно без регистрацииCopyright © 2019 .