Скачать Исука / Isuca [TV] [01-10 из 10] (2015) WEBRip 720p | P2 бесплатно без регистрации






Информация о фильме
Студия:

Субтитры: отсутствуют
Название: Исука / Иска
Релиз от: &Качество: WEBRip [HorribleSubs]
Аудио: 44.1 kHz, AAC, 2 ch, 128 kbps avg

Перевод: Профессиональный (двухголосый)
Продолжительность: ТВ (10 эп.), 25 мин.
Страна: Япония
Оригинальное название: Isuca / イスカ
Полухардсаб: надписи, логотип
Формат: MP4
Histeriya Оценка7 из 10 (3 голосов, самая низкая оценка - 1, самая высокая - 10) КатегорияАниме Раздают1 Качают0 Сидер замечен06-06-2019 18:19:12 (6 дней назад) Добавлен30-03-2015 20:59:22 (51 месяц назад) Размер3.78 GB (4054067539 Bytes)Автор оригинала: Такахаси Осаму / Takahashi Osamu / 高橋脩
О фильме: Синьитиро ищет работу, чтобы отплатить счета за квартиру. Его учительница предлагает ему работать у ее знакомых, просто убираясь у тех дома. Человеком, который соглашается принять Асано, оказывается Сакуя — 37-я глава клана Шимазу, чьей работой является изгнание и уничтожение мистических существ. Синьитиро случайно выпускает одно из существ, которое некогда запечатала Сакуя. Теперь этим двоим придется работать вместе, чтобы поймать его. Здесь и начинается наша комическая история об охоте за чудовищами!

Видео: 1280 x 720 (16:9) at 23.976 fps, AVC (x264), High@L3.0, 2190 Kbps avg, 0.099 bit/pixel, 8 bit
Снято по манге: Isuca

Перевод на русский: Timecraft

Ani-mania

MediaInfoОбщее
Полное имя : [Ani-Mania]_ISUCA_[rus]_[1280x720_x264]_[loster01_&_Emeri][Ani-Mania]_ISUCA_[01]_[rus]_[1280x720_x264]_[loster01_&_Emeri].mp4
Формат : MPEG-4
Профиль формата : Base Media
Идентификатор кодека : isom
Размер файла : 393 Мбайт
Продолжительность : 23 м.
Общий поток : 2321 Кбит/сек
Дата кодирования : UTC 2015-01-30 09:29:15
Дата пометки : UTC 2015-01-30 09:29:15
Программа кодирования : Yamb 2.1.0.0 [http://yamb.unite-video.com]

Видео
Идентификатор : 1
Формат : AVC
Формат/Информация : Advanced Video Codec
Профиль формата : High@L3.0
Параметр CABAC формата : Да
Параметр ReFrames формата : 4 кадры
Идентификатор кодека : avc1
Идентификатор кодека/Информация : Advanced Video Coding
Продолжительность : 23 м.
Вид битрейта : Переменный
Битрейт : 2190 Кбит/сек
Максимальный битрейт : 13,0 Мбит/сек
Ширина : 1280 пикс.
Высота : 720 пикс.
Соотношение сторон : 16:9
Режим частоты кадров : Постоянный
Частота кадров : 23,976 кадр/сек
Цветовое пространство : YUV
Подвыборка цветности : 4:2:0
Битовая глубина : 8 бит
Тип развёртки : Прогрессивная
Бит/(Пиксели*Кадры) : 0.099
Размер потока : 371 Мбайт (94%)
Библиотека кодирования : x264 core 130 r2273 b3065e6
Настройки программы : cabac=1 / ref=1 / deblock=1:1:1 / analyse=0x3:0x3 / me=dia / subme=1 / psy=1 / psy_rd=0.40:0.00 / mixed_ref=0 / me_range=16 / chroma_me=1 / trellis=0 / 8x8dct=1 / cqm=0 / deadzone=21,11 / fast_pskip=1 / chroma_qp_offset=0 / threads=12 / lookahead_threads=2 / sliced_threads=0 / nr=0 / decimate=1 / interlaced=0 / bluray_compat=0 / constrained_intra=0 / bframes=5 / b_pyramid=2 / b_adapt=1 / b_bias=0 / direct=1 / weightb=1 / open_gop=0 / weightp=1 / keyint=250 / keyint_min=23 / scenecut=40 / intra_refresh=0 / rc=crf / mbtree=0 / crf=19.0 / qcomp=0.60 / qpmin=0 / qpmax=69 / qpstep=4 / ip_ratio=1.40 / pb_ratio=1.30 / aq=1:0.60
Язык : Russian
Дата кодирования : UTC 2015-01-31 07:52:04
Дата пометки : UTC 2015-01-30 09:29:19

Аудио
Идентификатор : 2
Формат : AAC
Формат/Информация : Advanced Audio Codec
Профиль формата : LC
Идентификатор кодека : 40
Продолжительность : 23 м.
Вид битрейта : Переменный
Битрейт : 128 Кбит/сек
Максимальный битрейт : 133 Кбит/сек
Канал(ы) : 2 канала(ов)
Расположение каналов : Front: L R
Частота : 44,1 КГц
Метод сжатия : С потерями
Размер потока : 21,7 Мбайт (6%)
Язык : Russian
Дата кодирования : UTC 2015-01-30 09:29:18
Дата пометки : UTC 2015-01-30 09:29:19

Список эпизодов01. Chance Meeting
02. True Name
03. Confrontation
04. Shadow Play
05. Eye of Truth
06. Promise
07. Light and Dark
08. Trials
09. Attack
10. Resolution

Скриншоты


ЗалилТекст читают: Тимиркан Сиюхов & Маргарита Щелкунова
Год выхода: 2015
Жанр: приключения
Режиссер: Иванага Акира / Iwanaga Akira / 岩永彰

Если у вас возникли проблемы с закачкой Исука / Isuca [TV] [01-10 из 10] (2015) WEBRip 720p | P2, перейдите по ссылке - там вы найдете решение своей проблемы.

Категория: Аниме

 

Скачать Исука / Isuca [TV] [01-10 из 10] (2015) WEBRip 720p | P2 бесплатно без регистрации

 

Информация
Посетители, находящиеся в группе Гости, не могут оставлять комментарии к данной публикации.
 
 
Скачать Исука / Isuca [TV] [01-10 из 10] (2015) WEBRip 720p | P2 бесплатно без регистрацииCopyright © 2019 .