Скачать Меч короля Артура / King Arthur: Legend of the Sword (2017) DVD5 бесплатно без регистрации




Скриншоты:
ЗалилСаша 1992 ОценкаНикто ещё не поставил оценку КатегорияЗарубежные фильмы Раздают5 Качают1 Сидер замечен12-06-2019 16:19:13 (4 минуты назад) Добавлен01-09-2017 12:56:45 (22 месяца назад) Размер4.38 GB (4697696256 Bytes)Субтитры: Английские, русские
Режиссер: Гай Ричи
Производство: США / Warner Bros. Pictures, Village Roadshow Pictures, RatPac Entertainment, Weed Road Pictures, Safehouse Pictures
Аудио 2: AC3 5.1, 448 Кбит/сек [Русский - дублированный]

DVDInfo:Title: King Arthur. Legend of the Sword (2017) DVD5 NTSC
Size: 4.38 Gb ( 4 587 594,00 KBytes ) - DVD-5
Enabled regions: 1, 2, 3, 4, 5, 6, 7, 8

VTS_01 :
Play Length: 02:06:06+00:00:00+00:00:01
Video: NTSC 16:9 (720x480) VBR, Auto Letterboxed
Audio:
English (Dolby AC3, 6 ch)
Russian (Dolby AC3, 6 ch)
Subtitles:
English
Russian
Russian

* Menus Information *

VIDEO_TS Menu
Video:
NTSC 16:9 (720x480) VBR
Auto Letterboxed
Language Unit :
Title Menu

VTS_01 Menu
Video:
NTSC 16:9 (720x480) VBR
Auto Pan&Scan
Audio:
Not specified (Dolby AC3, 2 ch)
English Language Unit :
Root MenuMediaInfo:Общее
Полное имя : G:ВидеоKing Arthur. Legend of the Sword (2017) DVD5 NTSCVIDEO_TSVTS_01_2.VOB
Формат : MPEG-PS
Размер файла : 1024 Мбайт
Продолжительность : 28 м.
Режим общего битрейта : Переменный
Общий поток : 5096 Кбит/сек

Видео
Идентификатор : 224 (0xE0)
Формат : MPEG Video
Версия формата : Version 2
Профиль формата : Main@Main
Параметр BVOP формата : Да
Параметр матрицы формата : Выборочная
Параметр GOP формата : Variable
Продолжительность : 28 м.
Вид битрейта : Переменный
Битрейт : 4163 Кбит/сек
Максимальный битрейт : 7680 Кбит/сек
Ширина : 720 пикселей
Высота : 480 пикселей
Соотношение сторон : 16:9
Частота кадров : 23,976 (24000/1001) кадра/сек
Цветовое пространство : YUV
Субдискретизация насыщенности : 4:2:0
Битовая глубина : 8 бит
Тип развёртки : Прогрессивная
Порядок развёртки : 2:3 Pulldown
Метод сжатия : С потерями
Бит/(Пиксели*Кадры) : 0.502
Временной код первого кадра : 00:29:33:16
Оригинал временного кода : Group of pictures header
GOP, открыто/закрыто : Открыто
Размер потока : 836 Мбайт (82%)

Аудио #1
Идентификатор : 189 (0xBD)-128 (0x80)
Формат : AC-3
Формат/Информация : Audio Coding 3
Расширение режима : CM (complete main)
Параметр Endianness формата : Big
Режим смешивания : DVD-Video
Продолжительность : 28 м.
Вид битрейта : Постоянный
Битрейт : 384 Кбит/сек
Каналы : 6 каналов
Расположение каналов : Front: L C R, Side: L R, LFE
Частота : 48,0 КГц
Частота кадров : 31,250 кадров/сек (1536 spf)
Метод сжатия : С потерями
Задержка видео : -384 мс.
Размер потока : 77,2 Мбайт (8%)

Аудио #2
Идентификатор : 189 (0xBD)-130 (0x82)
Формат : AC-3
Формат/Информация : Audio Coding 3
Расширение режима : CM (complete main)
Параметр Endianness формата : Big
Режим смешивания : DVD-Video
Продолжительность : 28 м.
Вид битрейта : Постоянный
Битрейт : 448 Кбит/сек
Каналы : 6 каналов
Расположение каналов : Front: L C R, Side: L R, LFE
Частота : 48,0 КГц
Частота кадров : 31,250 кадров/сек (1536 spf)
Метод сжатия : С потерями
Задержка видео : -320 мс.
Размер потока : 90,0 Мбайт (9%)

Текст #1
Идентификатор : 189 (0xBD)-32 (0x20)
Формат : RLE
Формат/Информация : Run-length encoding
Режим смешивания : DVD-Video
Продолжительность : 28 м.
Задержка видео : 718 мс.

Текст #2
Идентификатор : 189 (0xBD)-33 (0x21)
Формат : RLE
Формат/Информация : Run-length encoding
Режим смешивания : DVD-Video
Продолжительность : 28 м.
Задержка видео : 317 мс.

Меню
Продолжительность : 28 м.

Доп. информация:Исходник: Меч короля Артура / King Arthur: Legend of the Sword (2017) DVD9 | D, А | Custom
Удалены: доп. материалы, описательная и авторская звуковая дорожка (в меню кнопки затёрты).
Команды диска переписаны заново, оставлен один VTS.
Видео сжато на 34,3%
Меню: статичное, недействующие кнопки затерты и закрыты.
Обработка и сжатие: DVD ReMake Pro + DVD Rebuilder + CCE SP2 [7 проходов] + Работа с меню (Adobe PhotoShop и MuxMan).Скриншоты меню:
Продюсеры: Брюс Берман, Стив Кларк-Холл, Дэвид Добкин
Жанр: Фэнтези, боевик, драма, приключения

Описание:
Молодой Артур живёт на задворках Лондиниума вместе со своей бандой. Он и понятия не имел о своём королевском происхождении, пока однажды не взял в руки меч Эскалибур. Меч начинает менять Артура. В результате он присоединяется к сопротивлению и таинственной молодой девушке по имени Гвиневра. Ему предстоит научиться понимать магическое оружие, которым он овладел, столкнуться со своими собственными демонами и объединить народ в борьбе против диктатора Вортигерна, убившего его родителей и завладевшего короной.

Год выпуска: 2017
Продолжительность: 02:06:06
Перевод: Дублированный
Аудио 1: AC3 5.1, 384 Кбит/сек [Английский - оригинал]
Дата российской премьеры: 11 мая 2017, «Каро-Премьер»

Дата мировой премьеры: 27 апреля 2017
«Рожден быть королем»



Актеры: Чарли Ханнэм, Астрид Берже-Фрисби, Джуд Лоу, Джимон Хонсу, Эрик Бана, Эйден Гиллен, Фредди Фокс, Крэйг МакГинли, Том Ву, Кингсли Бен-Адир

Качество видео: DVD5

Видео: MPEG-2, 720x480@853x480 (NTSC 16:9), ~4100 Кбит/сек

Если у вас возникли проблемы с закачкой Меч короля Артура / King Arthur: Legend of the Sword (2017) DVD5, перейдите по ссылке - там вы найдете решение своей проблемы.

Категория: Зарубежные фильмы

 

Скачать Меч короля Артура / King Arthur: Legend of the Sword (2017) DVD5 бесплатно без регистрации

 

Информация
Посетители, находящиеся в группе Гости, не могут оставлять комментарии к данной публикации.
 
 
Скачать Меч короля Артура / King Arthur: Legend of the Sword (2017) DVD5 бесплатно без регистрацииCopyright © 2019 .