Скачать Счастливого дня смерти / Happy Death Day (2017) BDRip 1080p от ExKinoRay | Лицензия бесплатно без регистрации






Информация о фильме
В ролях: Джессика Рот, Израэль Бруссар, Руби Модин, Лаура Клифтон, Джейсон Бэйл, Роб Мелло, Рэйчел Мэттьюз, Ремзи Андерсон, Брэди Льюис, Фи Ву, Тени Интриаго, Блейн Керн, Кариэлла Смит, Джимми Гонсалес, Билли Слотер





Студия: Blumhouse Productions, Digital Riot Media, Vesuvius Productions
Аудио #01: 48 kHz, DTS, 5.1, 768 Kbps | Дублированный |Автор релиза:
Качество: BDRip 1080p
Продолжительность: 01:36:11
Название: Счастливого дня смерти
Субтитры: Русские (forced, full), английские



MIGeneral
Unique ID : 9720772043157826288270987318260530579 (0x750271088DBA31A793A4A24114DFD93)
Complete name : C:Video111Happy.Death.Day.2017.BDRip.1080p.ExKinoRay.mkv
Format : Matroska
Format version : Version 4 / Version 2
File size : 8.13 GiB
Duration : 1 h 36 min
Overall bit rate : 12.1 Mb/s
Movie name : Happy Death Day 2017 from ExKinoRay
Encoded date : UTC 2018-02-15 19:09:27
Writing application : mkvmerge v20.0.0 ('I Am The Sun') 64-bit
Writing library : libebml v1.3.5 + libmatroska v1.4.8

Video
ID : 1
Format : AVC
Format/Info : Advanced Video Codec
Format profile : High@L4.1
Format settings : CABAC / 5 Ref Frames
Format settings, CABAC : Yes
Format settings, ReFrames : 5 frames
Codec ID : V_MPEG4/ISO/AVC
Duration : 1 h 36 min
Bit rate : 10.9 Mb/s
Width : 1 920 pixels
Height : 804 pixels
Display aspect ratio : 2.40:1
Frame rate mode : Constant
Frame rate : 23.976 (24000/1001) FPS
Color space : YUV
Chroma subsampling : 4:2:0
Bit depth : 8 bits
Scan type : Progressive
Bits/(Pixel*Frame) : 0.295
Stream size : 7.31 GiB (90%)
Writing library : x264 core 148 r2705 3f5ed56
Encoding settings : cabac=1 / ref=5 / deblock=1:-3:-3 / analyse=0x3:0x133 / me=umh / subme=11 / psy=1 / psy_rd=1.05:0.05 / mixed_ref=1 / me_range=32 / chroma_me=1 / trellis=2 / 8x8dct=1 / cqm=0 / deadzone=21,11 / fast_pskip=0 / chroma_qp_offset=-3 / threads=24 / lookahead_threads=4 / sliced_threads=0 / nr=0 / decimate=0 / interlaced=0 / bluray_compat=0 / constrained_intra=0 / bframes=8 / b_pyramid=2 / b_adapt=2 / b_bias=0 / direct=3 / weightb=1 / open_gop=0 / weightp=2 / keyint=240 / keyint_min=23 / scenecut=40 / intra_refresh=0 / rc_lookahead=50 / rc=2pass / mbtree=0 / bitrate=10900 / ratetol=1.0 / qcomp=0.60 / qpmin=0 / qpmax=69 / qpstep=4 / cplxblur=20.0 / qblur=0.5 / vbv_maxrate=50000 / vbv_bufsize=62500 / nal_hrd=none / filler=0 / ip_ratio=1.40 / pb_ratio=1.30 / aq=3:0.80
Language : English
Default : Yes
Forced : No

Audio #1
ID : 2
Format : DTS
Format/Info : Digital Theater Systems
Codec ID : A_DTS
Duration : 1 h 36 min
Bit rate mode : Constant
Bit rate : 768 kb/s
Channel(s) : 6 channels
Channel positions : Front: L C R, Side: L R, LFE
Sampling rate : 48.0 kHz
Frame rate : 93.750 FPS (512 SPF)
Bit depth : 24 bits
Compression mode : Lossy
Stream size : 528 MiB (6%)
Title : Dub [License]
Language : Russian
Default : Yes
Forced : No

Audio #2
ID : 3
Format : AC-3
Format/Info : Audio Coding 3
Codec ID : A_AC3
Duration : 1 h 36 min
Bit rate mode : Constant
Bit rate : 448 kb/s
Channel(s) : 6 channels
Channel positions : Front: L C R, Side: L R, LFE
Sampling rate : 48.0 kHz
Frame rate : 31.250 FPS (1536 SPF)
Bit depth : 16 bits
Compression mode : Lossy
Stream size : 308 MiB (4%)
Title : Original
Language : Russian
Service kind : Complete Main
Default : No
Forced : No

Text #1
ID : 4
Format : UTF-8
Codec ID : S_TEXT/UTF8
Codec ID/Info : UTF-8 Plain Text
Duration : 1 h 34 min
Bit rate : 1 b/s
Count of elements : 35
Stream size : 979 Bytes (0%)
Title : Forced
Language : Russian
Default : Yes
Forced : No

Text #2
ID : 5
Format : UTF-8
Codec ID : S_TEXT/UTF8
Codec ID/Info : UTF-8 Plain Text
Duration : 1 h 28 min
Bit rate : 87 b/s
Count of elements : 1280
Stream size : 57.2 KiB (0%)
Title : Full
Language : Russian
Default : No
Forced : No

Text #3
ID : 6
Format : UTF-8
Codec ID : S_TEXT/UTF8
Codec ID/Info : UTF-8 Plain Text
Duration : 1 h 30 min
Bit rate : 55 b/s
Count of elements : 1431
Stream size : 36.9 KiB (0%)
Title : Full
Language : English
Default : No
Forced : No

Menu
00:00:00.000 : en:Chapter 01
00:04:54.460 : en:Chapter 02
00:10:26.000 : en:Chapter 03
00:14:10.683 : en:Chapter 04
00:21:46.722 : en:Chapter 05
00:25:08.798 : en:Chapter 06
00:29:37.859 : en:Chapter 07
00:33:09.320 : en:Chapter 08
00:37:50.142 : en:Chapter 09
00:41:46.170 : en:Chapter 10
00:44:54.191 : en:Chapter 11
00:53:07.934 : en:Chapter 12
00:57:28.361 : en:Chapter 13
01:00:18.448 : en:Chapter 14
01:07:41.557 : en:Chapter 15
01:12:16.290 : en:Chapter 16
01:16:35.090 : en:Chapter 17
01:21:17.080 : en:Chapter 18
01:27:13.645 : en:Chapter 19
01:30:24.168 : en:Chapter 20

Звук:
> :


Оценка10 из 10 (1 голосов, самая низкая оценка - 10, самая высокая - 10) КатегорияЗарубежные фильмы Раздают37 Качают4 Сидер замечен12-06-2019 13:19:12 (4 минуты назад) Добавлен15-02-2018 22:14:45 (16 месяцев назад) Размер8.13 GB (8732821764 Bytes)Аудио #02: 48 kHz, AC3, 5.1, 448 Kbps | Оригинал |Режиссер: Кристофер Лэндон
Жанр: Ужасы, триллер, детектив, комедия
ENG |
RUS |
Перевод: Дублированный | Лицензия

Год выхода: 2017
Страна: США
Видео: MPEG-4 AVC, 1920x804, 10.9 Mbit/s, 23.976 fps
О фильме:
Каждый в универе мечтал попасть на её день рождения, но праздник был безнадежно испорчен незнакомцем в маске, убившим виновницу торжества. Однако судьба преподнесла имениннице леденящий душу подарок — бесконечный запас жизней. И теперь у девушки появился шанс вычислить своего убийцу, ведь этот день будет повторяться снова и снова…


Подпишись на меня, кликни по картинкеОригинальное название: Happy Death Day
Релиз от:

Если у вас возникли проблемы с закачкой Счастливого дня смерти / Happy Death Day (2017) BDRip 1080p от ExKinoRay | Лицензия, перейдите по ссылке - там вы найдете решение своей проблемы.

Категория: Зарубежные фильмы

 

Скачать Счастливого дня смерти / Happy Death Day (2017) BDRip 1080p от ExKinoRay | Лицензия бесплатно без регистрации

 

Информация
Посетители, находящиеся в группе Гости, не могут оставлять комментарии к данной публикации.
 
 
Скачать Счастливого дня смерти / Happy Death Day (2017) BDRip 1080p от ExKinoRay | Лицензия бесплатно без регистрацииCopyright © 2019 .