Скачать Имя мне Ночь / I Am the Night [S01] (2019) WEBRip 720p | OMSKBIRD бесплатно без регистрации






Информация о фильме
Перевод: Любительский (многоголосый закадровый) |OMSKBIRD

Год выхода: 2019
Присутствует реклама!

Скриншоты



Mediainfo:General
Unique ID : 200826130185870271768001970744383210092 (0x9715B4AD9B7A40C38B77FF1BD447826C)
Complete name : H:Мои ДокументыВидеоРАЗДАЧИСИНЬКАProject Blue Book S01 WEBRip 720p (OMSKBIRD)Project Blue Book S01E01 WEBRip 720p (OMSKBIRD).mkv
Format : Matroska
Format version : Version 2
File size : 1 006 MiB
Duration : 44 min 54 s
Overall bit rate : 3 132 kb/s
Encoded date : UTC 2019-01-09 18:38:54
Writing application : mkvmerge v4.0.0 ('The Stars were mine') сборка от Jun 6 2010 16:18:42
Writing library : libebml v1.0.0 + libmatroska v1.0.0

Video
ID : 1
Format : AVC
Format/Info : Advanced Video Codec
Format profile : Main@L3.2
Format settings, CABAC : Yes
Format settings, RefFrames : 3 frames
Codec ID : V_MPEG4/ISO/AVC
Duration : 44 min 54 s
Bit rate : 2 877 kb/s
Width : 1 280 pixels
Height : 720 pixels
Display aspect ratio : 16:9
Frame rate mode : Constant
Frame rate : 23.976 (24000/1001) FPS
Standard : PAL
Color space : YUV
Chroma subsampling : 4:2:0
Bit depth : 8 bits
Scan type : Progressive
Bits/(Pixel*Frame) : 0.130
Stream size : 924 MiB (92%)
Language : English
Default : Yes
Forced : No
Color range : Limited
Color primaries : BT.709
Transfer characteristics : BT.709
Matrix coefficients : BT.709

Audio
ID : 2
Format : AC-3
Format/Info : Audio Coding 3
Format settings, Endianness : Big
Codec ID : A_AC3
Duration : 44 min 54 s
Bit rate mode : Constant
Bit rate : 192 kb/s
Channel(s) : 2 channels
Channel positions : Front: L R
Sampling rate : 48.0 kHz
Frame rate : 31.250 FPS (1536 SPF)
Bit depth : 16 bits
Compression mode : Lossy
Stream size : 61.7 MiB (6%)
Service kind : Complete Main
Default : Yes
Forced : No





ЗалилВ ролях: Крис Пайн, Индиа Айсли, Джеффресон Мейс, Дилан Смит, Шоникуа Шандай, Голден Брукс, Джей Полсон, Джастин Корнвэлл, Александр Канеллакос и др.

Кодек: MPEG-4 AVC
Жанр: детектив, драма
Режиссер: Пэтти Дженкинс, Виктория Махони
Оригинальное название: I Am the Night
Звук: Gater_media ОценкаНикто ещё не поставил оценку КатегорияЗарубежные сериалы Раздают8 Качают2 Сидер замечен12-06-2019 12:19:12 (4 минуты назад) Добавлен06-03-2019 16:26:29 (3 месяца назад) Размер6.80 GB (7299584355 Bytes)О фильме:
Юная Пэт — дочь белого и афроамериканки, живет неподалеку от Рино, штат Невада, страдает от спивающейся матери, воспитывающей ее в одиночку, сталкивается с процветающим расизмом и другими типичными проблемами Америки 1960-х. Все меняется, когда она случайно узнает, что ее настоящее имя — Фауна Ходел, а женщина, которую она все это время считала матерью, взяла ее на попечение ребенком двадцать лет назад. Фауна решает во что бы то ни стало найти свои биологических родителей, и помогает ей в этом журналист Джей Синглетери — ветеран Корейской войны, наркоман и авантюрист, тоже мечтающий о другой жизни.


Страна: США
Продолжительность: ~ 00:55:00 серия
Видео: AVC, 1280x720 (16:9), 23.976 fps, ~ 3000 kbps
Название: Имя мне ночь / Я-ночь
Качество: WEBRip 720p
Семпл

Аудио rus: AC-3, 48 KHz, 2 ch, 192 kbps | OMSKBIRD records

Если у вас возникли проблемы с закачкой Имя мне Ночь / I Am the Night [S01] (2019) WEBRip 720p | OMSKBIRD, перейдите по ссылке - там вы найдете решение своей проблемы.

Категория: Зарубежные сериалы

 

Скачать Имя мне Ночь / I Am the Night [S01] (2019) WEBRip 720p | OMSKBIRD бесплатно без регистрации

 

Информация
Посетители, находящиеся в группе Гости, не могут оставлять комментарии к данной публикации.
 
 
Скачать Имя мне Ночь / I Am the Night [S01] (2019) WEBRip 720p | OMSKBIRD бесплатно без регистрацииCopyright © 2019 .