Скачать Елизавета / Elizabeth (1998) HDDVDRip 1080p | D бесплатно без регистрации






Жанр: Драма, биография
Сравнение с исходником



MediaInfoОбщее
Уникальный идентификатор : 222603299886573329124070360650201354088 (0xA777D60A75950AD5A9168EA6B67ACF68)
Полное имя : E:VideoElizaveta.1998.x264.HDDVDRip.1080p.mkv
Формат : Matroska
Версия формата : Version 4 / Version 2
Размер файла : 9,91 Гбайт
Продолжительность : 2 ч. 3 м.
Общий поток : 11,5 Мбит/сек
Название фильма : Елизавета / Elizabeth / 1998 / BDRip -- STarankov
Дата кодирования : UTC 2010-02-22 21:41:31
Программа кодирования : mkvmerge v5.9.0 ('On The Loose') built on Dec 9 2012 15:37:01
Библиотека кодирования : libebml v1.3.0 + libmatroska v1.4.0

Видео
Идентификатор : 1
Формат : AVC
Формат/Информация : Advanced Video Codec
Профиль формата : High@L4.1
Параметр CABAC формата : Да
Параметр ReFrames формата : 4 кадра
Идентификатор кодека : V_MPEG4/ISO/AVC
Продолжительность : 2 ч. 3 м.
Битрейт : 10,4 Мбит/сек
Ширина : 1920 пикселей
Высота : 1040 пикселей
Соотношение сторон : 1,85:1
Режим частоты кадров : Постоянный
Частота кадров : 23,976 кадра/сек
Цветовое пространство : YUV
Субдискретизация насыщенности : 4:2:0
Битовая глубина : 8 бит
Тип развёртки : Прогрессивная
Бит/(Пиксели*Кадры) : 0.217
Размер потока : 8,77 Гбайт (89%)
Библиотека кодирования : x264 core 129 r2245 bc13772
Настройки программы : cabac=1 / ref=4 / deblock=1:-1:-1 / analyse=0x3:0x113 / me=umh / subme=9 / psy=1 / psy_rd=1.00:0.15 / mixed_ref=1 / me_range=24 / chroma_me=1 / trellis=2 / 8x8dct=1 / cqm=0 / deadzone=21,11 / fast_pskip=0 / chroma_qp_offset=-3 / threads=6 / lookahead_threads=1 / sliced_threads=0 / nr=0 / decimate=1 / interlaced=0 / bluray_compat=0 / constrained_intra=0 / bframes=7 / b_pyramid=2 / b_adapt=2 / b_bias=0 / direct=3 / weightb=0 / open_gop=0 / weightp=2 / keyint=230 / keyint_min=23 / scenecut=40 / intra_refresh=0 / rc=2pass / mbtree=0 / bitrate=10400 / ratetol=1.0 / qcomp=0.60 / qpmin=0 / qpmax=69 / qpstep=4 / cplxblur=20.0 / qblur=0.5 / ip_ratio=1.40 / pb_ratio=1.30 / aq=1:1.00
Язык : English
Default : Да
Forced : Нет

Аудио #1
Идентификатор : 2
Формат : AC-3
Формат/Информация : Audio Coding 3
Расширение режима : CM (complete main)
Параметр Endianness формата : Big
Идентификатор кодека : A_AC3
Продолжительность : 2 ч. 3 м.
Вид битрейта : Постоянный
Битрейт : 448 Кбит/сек
Каналы : 6 каналов
Расположение каналов : Front: L C R, Side: L R, LFE
Частота : 48,0 КГц
Битовая глубина : 16 бит
Метод сжатия : С потерями
Размер потока : 396 Мбайт (4%)
Заголовок : DUB
Язык : Russian
Default : Да
Forced : Нет

Аудио #2
Идентификатор : 3
Формат : AC-3
Формат/Информация : Audio Coding 3
Расширение режима : CM (complete main)
Параметр Endianness формата : Big
Идентификатор кодека : A_AC3
Продолжительность : 2 ч. 3 м.
Вид битрейта : Постоянный
Битрейт : 640 Кбит/сек
Каналы : 6 каналов
Расположение каналов : Front: L C R, Side: L R, LFE
Частота : 48,0 КГц
Битовая глубина : 16 бит
Метод сжатия : С потерями
Размер потока : 565 Мбайт (6%)
Заголовок : Original
Язык : English
Default : Нет
Forced : Нет
Скриншоты
ЗалилРазмер: 9.91 ГБ
В ролях: Кейт Бланшетт, Джеффри Раш, Кристофер Экклстон, Джозеф Файнс, Ричард Аттенборо, Фанни Ардан, Эрик Кантона, Венсан Кассель, Кэти Бёрк, Эдвард Хардуик, Эмили Мортимер, Джон Гилгуд, Лиз Джиллз, Род Калбертсон, Пол Фокс, Теренс Ригби, Питер Стокбридж, Аманда Райан, Валери Гэйл, Джордж Ясуми, Джеймс Фрейн, Джэми Формен, Келли Макдоналд, Уэйн Слип, Сэлли Грэй, Кейт Лустау, Элика Гиббс, Сара Оуэн, Лили Аллен, Джо Уайт, Мэтт Эндрюс, Лайам Фоли, Льюис Джонс, Майкл Бейнт, Ангус Дейтон, Кенни Даути, Хейли Барроуз, Джозеф О’Конор, Брендан О’Хиа, Эдвард Хаймор, Дэниэл Мойнихэн, Джереми Хоук, Дональд Пелмер, Джеймс Роу

О фильме: Англия. 1554 год. Старшая дочь Генриха VIII, королева Мария, ревностная католичка, умирает, и королевой становится юная Елизавета (дочь Генриха и Анны Болейн). Ей приходится расстаться с радостями свободы ради могущества и единства Англии, независимости которой угрожают Испания, Франция и Папа Римский. Елизавета решается на самые отчаянные и неожиданные меры, благодаря которым она и осталась в истории Англии самой великой королевой и самой талантливой женщиной.

Продолжительность: 02:03:31
msltel Оценка10 из 10 (1 голосов, самая низкая оценка - 10, самая высокая - 10) КатегорияЗарубежные фильмы Раздают1 Качают1 Сидер замечен12-06-2019 11:19:11 (4 минуты назад) Добавлен16-05-2013 13:27:40 (74 месяца назад) Размер9.91 GB (10639064937 Bytes)Название: Елизавета
Оригинальное название: Elizabeth
Качество: HDDVDRip 1080p
Год выпуска: 1998
Перевод: Дублированный

Режиссер: Шекхар Капур
Выпущено: Великобритания, Channel Four Films, PolyGram Filmed Entertainment, Working Title Films
Видео: MPEG-4 AVC, 10.4 Мбит/с, 1920x1040
Аудио: Русский (AC3, 6 ch, 448 Кбит/с), английский (AC3, 6 ch, 640 Кбит/с)

Если у вас возникли проблемы с закачкой Елизавета / Elizabeth (1998) HDDVDRip 1080p | D, перейдите по ссылке - там вы найдете решение своей проблемы.

Категория: Зарубежные фильмы

 

Скачать Елизавета / Elizabeth (1998) HDDVDRip 1080p | D бесплатно без регистрации

 

Информация
Посетители, находящиеся в группе Гости, не могут оставлять комментарии к данной публикации.
 
 
Скачать Елизавета / Elizabeth (1998) HDDVDRip 1080p | D бесплатно без регистрацииCopyright © 2019 .