Скачать Расправа / Reprisal (2018) WEB-DLRip-AVC от OlLanDGroup | HDrezka Studio бесплатно без регистрации






Год выпуска: 2018
Страна: Великобритания, США
Жанр: Боевик, триллер, криминал

Дата премьеры (мир): 30 августа 2018, ...



Режиссёр: Брайан А Миллер
Релиз от: Аудио кодек: AС3
Видео кодек: MPEG-4 AVC
Аудио: 48 kHz, Audio Coding 3, 2 (L,R) ch, ~192.00 kbps avg | RUS (HDrezka Studio)

Качество: WEB-DLRip-AVC
Субтитры: Английские (вшитые, отключаемые / UTF-8)
Продолжительность: 01:29:09

Реклама: Отсутствует

Wazzzup RK ОценкаНикто ещё не поставил оценку КатегорияЗарубежные фильмы Раздают7 Качают0 Сидер замечен12-06-2019 11:19:11 (4 минуты назад) Добавлен09-09-2018 2:01:01 (9 месяцев назад) Размер743.66 MB (779786440 Bytes)В ролях: Брюс Уиллис, Фрэнк Грилло, Джонатон Шек, Оливия Калпо, Натали Юра, Дядя Мурда, Наталья Софи Батлер, Тайлер Джон Олсон, Уасс М. Стивенс, Колин Эглсфилд

Видео: 720x388 (1,85:1), 23,976 fps, x264 ~975 kbps avg, 0.146 bit/pixel
Формат: MKV
Производство: Emmett/Furla Films, Ingenious Media, Kind Hearts Entertainment
Расправа / Reprisal
«A Life for a Life»


Описание: Служащему банка не даёт покоя жестокое ограбление, которое унесло жизнь его коллеги, и он решает выследить неуловимого и методичного грабителя-одиночку с помощью своего соседа - опытного полицейского на пенсии.



Rip by:

MediaInfo
Общее
Уникальный идентификатор : 237470548265023905102442843334527825560 (0xB2A729FAAECDCC13A45B3FC1F2263698)
Полное имя : D:ВидеоReprisal.2018.x264.WEB-DLRip.(AVC).OlLanDGroup.mkv
Формат : Matroska
Версия формата : Version 4 / Version 2
Размер файла : 744 Мбайт
Продолжительность : 1 ч. 29 м.
Общий поток : 1166 Кбит/сек
Название фильма : Reprisal.2018. x264. Rip by Vovan366
Дата кодирования : UTC 2018-09-08 22:34:18
Программа кодирования : mkvmerge v26.0.0 ('In The Game') 64-bit
Библиотека кодирования : libebml v1.3.6 + libmatroska v1.4.9
DURATION : 01:27:53.529000000
NUMBER_OF_FRAMES : 1055
NUMBER_OF_BYTES : 32777
_STATISTICS_WRITING_APP : mkvmerge v26.0.0 ('In The Game') 64-bit
_STATISTICS_WRITING_DATE_UTC : 2018-09-08 22:34:18
_STATISTICS_TAGS : BPS DURATION NUMBER_OF_FRAMES NUMBER_OF_BYTES
Attachment : Yes

Видео
Идентификатор : 1
Формат : AVC
Формат/Информация : Advanced Video Codec
Профиль формата : High@L4.1
Параметр CABAC формата : Да
Параметр ReFrames формата : 9 кадров
Идентификатор кодека : V_MPEG4/ISO/AVC
Продолжительность : 1 ч. 29 м.
Битрейт : 975 Кбит/сек
Ширина : 720 пикселей
Высота : 388 пикселей
Соотношение сторон : 1,85:1
Режим частоты кадров : Постоянный
Частота кадров : 23,976 кадра/сек
Цветовое пространство : YUV
Субдискретизация насыщенности : 4:2:0
Битовая глубина : 8 бит
Тип развёртки : Прогрессивная
Бит/(Пиксели*Кадры) : 0.146
Размер потока : 606 Мбайт (82%)
Заголовок : Reprisal.2018.x264.WEB-DLRip.(AVC).OlLanDGroup
Библиотека кодирования : x264 core 146 r2538 121396c
Настройки программы : cabac=1 / ref=9 / deblock=1:-3:-3 / analyse=0x3:0x133 / me=umh / subme=11 / psy=1 / psy_rd=1.00:0.00 / mixed_ref=1 / me_range=32 / chroma_me=1 / trellis=2 / 8x8dct=1 / cqm=0 / deadzone=21,11 / fast_pskip=0 / chroma_qp_offset=-2 / threads=6 / lookahead_threads=1 / sliced_threads=0 / nr=0 / decimate=0 / interlaced=0 / bluray_compat=0 / constrained_intra=0 / bframes=10 / b_pyramid=2 / b_adapt=1 / b_bias=0 / direct=3 / weightb=1 / open_gop=0 / weightp=2 / keyint=240 / keyint_min=23 / scenecut=40 / intra_refresh=0 / rc_lookahead=40 / rc=2pass / mbtree=0 / bitrate=975 / ratetol=1.0 / qcomp=0.60 / qpmin=0 / qpmax=69 / qpstep=4 / cplxblur=20.0 / qblur=0.5 / vbv_maxrate=50000 / vbv_bufsize=52500 / nal_hrd=none / filler=0 / ip_ratio=1.40 / pb_ratio=1.30 / aq=1:1.00
Язык : English
Default : Да
Forced : Нет

Аудио
Идентификатор : 2
Формат : AC-3
Формат/Информация : Audio Coding 3
Расширение режима : CM (complete main)
Параметр Endianness формата : Big
Идентификатор кодека : A_AC3
Продолжительность : 1 ч. 29 м.
Вид битрейта : Постоянный
Битрейт : 192 Кбит/сек
Каналы : 2 канала
Расположение каналов : Front: L R
Частота : 48,0 КГц
Битовая глубина : 16 бит
Метод сжатия : С потерями
Размер потока : 122 Мбайт (16%)
Заголовок : MVO | HDrezka Studio
Язык : Russian
Default : Да
Forced : Нет

Текст
Идентификатор : 3
Формат : UTF-8
Идентификатор кодека : S_TEXT/UTF8
Идентификатор кодека/Информация : UTF-8 Plain Text
Заголовок : SDH
Язык : English
Default : Нет
Forced : Нет

Меню
00:00:00.000 : en:1
00:03:18.000 : en:2
00:14:18.000 : en:3
00:25:52.000 : en:4
00:35:06.000 : en:5
00:44:31.000 : en:6
00:56:40.000 : en:7
01:06:04.000 : en:8
01:15:40.000 : en:9
01:26:17.000 : en:10





ЗалилПеревод: Профессиональный (многоголосый закадровый) HDrezka Studio

Если у вас возникли проблемы с закачкой Расправа / Reprisal (2018) WEB-DLRip-AVC от OlLanDGroup | HDrezka Studio, перейдите по ссылке - там вы найдете решение своей проблемы.

Категория: Зарубежные фильмы

 

Скачать Расправа / Reprisal (2018) WEB-DLRip-AVC от OlLanDGroup | HDrezka Studio бесплатно без регистрации

 

Информация
Посетители, находящиеся в группе Гости, не могут оставлять комментарии к данной публикации.
 
 
Скачать Расправа / Reprisal (2018) WEB-DLRip-AVC от OlLanDGroup | HDrezka Studio бесплатно без регистрацииCopyright © 2019 .