Скачать Добро пожаловать на Юг 2, или Соседям вход воспрещен / Non c'è più religione (2016) WEB-DLRip-AVC | iTunes бесплатно без регистрации






Информация о фильме
Название: Добро пожаловать на Юг 2, или Соседям вход воспрещен
Режиссер: Лука Миньеро
Субтитры: Нет

MVO, iTunes
Видео: x264, High@L4.1, 1148x480, 25.000 fps, 2084 Kbps
Продолжительность: 01:29:51
Описание: В процессе подготовки к празднованию Рождества обитатели маленького итальянского острова сталкиваются с серьезной проблемой. На острове уже много лет не рождались дети, поэтому некому сыграть роль младенца Христа в постановке с поклонением волхвов, а мальчик, который играл эту роль раньше, уже непозволительно большой. Есть, разумеется, вариант - одолжить младенца у тунисской диаспоры, но они мусульмане, поэтому эта идея видится многим не совсем каноничной.



Качество: WEB-DLRip-AVC
Оригинальное название: Non c'è più religione
Stallone ОценкаНикто ещё не поставил оценку КатегорияЗарубежные фильмы Раздают3 Качают0 Сидер замечен12-06-2019 11:19:11 (4 минуты назад) Добавлен25-03-2019 19:37:27 (3 месяца назад) Размер1.58 GB (1697182466 Bytes)В ролях: Клаудио Бизио, Алессандро Гассман, Анджела Финоккьяро, Набиха Аккари, Мехди Мескар, Лаура Адриани, Джованни Качоппо, Массимо Де Лоренцо, Джованни Эспозито

Формат: MKV
iTunes

Аудио: Русский: AC3, 16 bits, 48 Khz, 5.1 ch, 384 Kbps |Жанр: Комедия
Перевод: Профессиональный (многоголосый, закадровый) |Релиз от: george$t

MediaInfoGeneral
Unique ID : 247168035096668265304698022568066820788 (0xB9F2D4FE87664C718EF347EBE5342AB4)
Complete name : Добро пожаловать на Юг 2.2016.mkv
Format : Matroska
Format version : Version 2
File size : 1.58 GiB
Duration : 1 h 29 min
Overall bit rate : 2 519 kb/s
Encoded date : UTC 2019-03-25 13:24:18
Writing application : mkvmerge v7.8.0 ('River Man') 32bit built on Mar 27 2015 16:18:02
Writing library : libebml v1.3.1 + libmatroska v1.4.2

Video
ID : 1
Format : AVC
Format/Info : Advanced Video Codec
Format profile : High@L4.1
Format settings : CABAC / 12 Ref Frames
Format settings, CABAC : Yes
Format settings, ReFrames : 12 frames
Codec ID : V_MPEG4/ISO/AVC
Duration : 1 h 29 min
Bit rate : 2 084 kb/s
Width : 1 148 pixels
Height : 480 pixels
Display aspect ratio : 2.40:1
Frame rate mode : Constant
Frame rate : 25.000 FPS
Color space : YUV
Chroma subsampling : 4:2:0
Bit depth : 8 bits
Scan type : Progressive
Bits/(Pixel*Frame) : 0.151
Stream size : 1.31 GiB (83%)
Title : Добро пожаловать на Юг 2, или Соседям вход воспрещен / Non c'è più religione 2016
Writing library : x264 core 152 r2851kMod ba24899
Encoding settings : cabac=1 / ref=12 / deblock=1:-2:-2 / analyse=0x3:0x133 / me=umh / subme=10 / psy=1 / fade_compensate=0.00 / psy_rd=1.05:0.00 / mixed_ref=1 / me_range=32 / chroma_me=1 / trellis=2 / 8x8dct=1 / cqm=0 / deadzone=21,11 / fast_pskip=1 / chroma_qp_offset=-2 / threads=12 / lookahead_threads=3 / sliced_threads=0 / nr=0 / decimate=1 / interlaced=0 / bluray_compat=0 / constrained_intra=0 / bframes=12 / b_pyramid=2 / b_adapt=2 / b_bias=0 / direct=3 / weightb=1 / open_gop=0 / weightp=2 / keyint=250 / keyint_min=25 / scenecut=40 / intra_refresh=0 / rc_lookahead=80 / rc=crf / mbtree=0 / crf=19.0000 / qcomp=0.70 / qpmin=0 / qpmax=69 / qpstep=4 / vbv_maxrate=62500 / vbv_bufsize=78125 / crf_max=0.0 / nal_hrd=none / filler=0 / ip_ratio=1.40 / pb_ratio=1.30 / aq=1:0.80 / zones=129081,134774,q=30
Language : Italian
Default : Yes
Forced : No
Color range : Limited
Color primaries : BT.709
Transfer characteristics : BT.709
Matrix coefficients : BT.709

Audio
ID : 2
Format : AC-3
Format/Info : Audio Coding 3
Codec ID : A_AC3
Duration : 1 h 29 min
Bit rate mode : Constant
Bit rate : 384 kb/s
Channel(s) : 6 channels
Channel positions : Front: L C R, Side: L R, LFE
Sampling rate : 48.0 kHz
Frame rate : 31.250 FPS (1536 SPF)
Bit depth : 16 bits
Compression mode : Lossy
Stream size : 247 MiB (15%)
Title : AC-3; 16 bits 48 Khz; 5.1ch 384 Kbps; CBR | MVO (iTunes)
Language : Russian
Service kind : Complete Main
Default : Yes
Forced : NoСкриншоты ЗалилГод выпуска: 2016
Страна: Италия

Если у вас возникли проблемы с закачкой Добро пожаловать на Юг 2, или Соседям вход воспрещен / Non c'è più religione (2016) WEB-DLRip-AVC | iTunes, перейдите по ссылке - там вы найдете решение своей проблемы.

Категория: Зарубежные фильмы

 

Скачать Добро пожаловать на Юг 2, или Соседям вход воспрещен / Non c'è più religione (2016) WEB-DLRip-AVC | iTunes бесплатно без регистрации

 

Информация
Посетители, находящиеся в группе Гости, не могут оставлять комментарии к данной публикации.
 
 
Скачать Добро пожаловать на Юг 2, или Соседям вход воспрещен / Non c'è più religione (2016) WEB-DLRip-AVC | iTunes бесплатно без регистрацииCopyright © 2019 .