Скачать Девушка напротив / The Girl Next Door (2007) BDRip 1080p by msltel | P2, A бесплатно без регистрации






msltel Оценка10 из 10 (1 голосов, самая низкая оценка - 10, самая высокая - 10) КатегорияЗарубежные фильмы Раздают0 Качают0 Сидер замечен12-06-2019 7:19:11 (2 часа назад) Добавлен07-04-2014 11:47:42 (63 месяца назад) Размер11.91 GB (12787036898 Bytes)В ролях: Блайт Оффарт, Дэниэл Манче, Уильям Этертон, Кевин Чэмберлин, Дин Фолкенберри, Гэбриэлль Ховарт, Бенжамин Росс Каплан, Спенсер Ли, Марк Марголис, Грэхэм Патрик Мартин, Грег Нортроп, Грант Шоу, Санто Сильвестро, Катрин Мэри Стюарт, Мадлен Тейлор, Эндрю Ван Ден Хутен, Остин Уильямс, Майкл Зеген, Леон Бло, Джейсон Ригсби, Питер Стиклс, Дэн Абрам, Линда Эддисон, Кристин Чу, Рори Дуглас, Бет Джиттлман, Вивиан Эрнандез, Моника О’Рурк, Дж. Паркхерст, Алана Рейдер, Дэвид Оффарт, Джек Кетчам

Название: Девушка напротив
Год выпуска: 2007
Качество: BDRip 1080p
Режиссер: Грегори Уилсон
Продолжительность: 01:31:10

Жанр: Драма, криминал, триллер
Оригинальное название: The Girl Next Door
Видео: MPEG-4 AVC, 14.9 Mбит/с, 1920x1080
Аудио 1: русский, 48 kHz, AC3, 6 ch, 448 kbps avg, [Профессиональный двухголосый]
Исходник: Povarkok (Кинозал)

Сравнение с исходником



MediaInfo +Лог х264Общее
Уникальный идентификатор : 252410043390633799705311568742400304115 (0xBDE467F50E60C2CB905BD7E9EEA6A3F3)
Полное имя : D:VideoDevushka naprotiv.2007.x264.BDRip.1080p.mkv
Формат : Matroska
Версия формата : Version 4 / Version 2
Размер файла : 11,9 Гбайт
Продолжительность : 1 ч. 31 м.
Общий поток : 18,7 Мбит/сек
Дата кодирования : UTC 2014-04-06 13:57:29
Программа кодирования : mkvmerge v6.8.0 ('Theme for Great Cities') 64bit built on Mar 2 2014 21:34:26
Библиотека кодирования : libebml v1.3.0 + libmatroska v1.4.1

Видео
Идентификатор : 1
Формат : AVC
Формат/Информация : Advanced Video Codec
Профиль формата : High@L4.1
Параметр CABAC формата : Да
Параметр ReFrames формата : 4 кадра
Идентификатор кодека : V_MPEG4/ISO/AVC
Продолжительность : 1 ч. 31 м.
Битрейт : 14,9 Мбит/сек
Ширина : 1920 пикселей
Высота : 1080 пикселей
Соотношение сторон : 16:9
Режим частоты кадров : Постоянный
Частота кадров : 23,976 кадра/сек
Цветовое пространство : YUV
Субдискретизация насыщенности : 4:2:0
Битовая глубина : 8 бит
Тип развёртки : Прогрессивная
Бит/(Пиксели*Кадры) : 0.299
Размер потока : 9,46 Гбайт (79%)
Заголовок : BDRip -- STarankov
Библиотека кодирования : x264 core 138 r2358 9e941d1
Настройки программы : cabac=1 / ref=4 / deblock=1:-1:-1 / analyse=0x3:0x113 / me=umh / subme=10 / psy=1 / psy_rd=1.00:0.15 / mixed_ref=1 / me_range=32 / chroma_me=1 / trellis=2 / 8x8dct=1 / cqm=0 / deadzone=21,11 / fast_pskip=0 / chroma_qp_offset=-3 / threads=6 / lookahead_threads=1 / sliced_threads=0 / nr=0 / decimate=1 / interlaced=0 / bluray_compat=0 / constrained_intra=0 / bframes=8 / b_pyramid=2 / b_adapt=2 / b_bias=0 / direct=1 / weightb=1 / open_gop=0 / weightp=2 / keyint=230 / keyint_min=23 / scenecut=40 / intra_refresh=0 / rc_lookahead=40 / rc=crf / mbtree=0 / crf=17.0 / qcomp=0.60 / qpmin=0 / qpmax=69 / qpstep=4 / vbv_maxrate=40000 / vbv_bufsize=50000 / crf_max=0.0 / nal_hrd=none / ip_ratio=1.40 / pb_ratio=1.30 / aq=1:1.00
Язык : English
Default : Да
Forced : Нет

Аудио #1
Идентификатор : 2
Формат : AC-3
Формат/Информация : Audio Coding 3
Расширение режима : CM (complete main)
Параметр Endianness формата : Big
Идентификатор кодека : A_AC3
Продолжительность : 1 ч. 31 м.
Вид битрейта : Постоянный
Битрейт : 448 Кбит/сек
Каналы : 6 каналов
Расположение каналов : Front: L C R, Side: L R, LFE
Частота : 48,0 КГц
Битовая глубина : 16 бит
Метод сжатия : С потерями
Размер потока : 292 Мбайт (2%)
Заголовок : DVO
Язык : Russian
Default : Да
Forced : Нет

Аудио #2
Идентификатор : 3
Формат : DTS
Формат/Информация : Digital Theater Systems
Режим : 16
Параметр Endianness формата : Big
Идентификатор кодека : A_DTS
Продолжительность : 1 ч. 31 м.
Вид битрейта : Постоянный
Битрейт : 1509 Кбит/сек
Каналы : 6 каналов
Расположение каналов : Front: L C R, Side: L R, LFE
Частота : 48,0 КГц
Битовая глубина : 16 бит
Метод сжатия : С потерями
Размер потока : 984 Мбайт (8%)
Заголовок : AVO (Антон Алексеев)
Язык : Russian
Default : Нет
Forced : Нет

Аудио #3
Идентификатор : 4
Формат : DTS
Формат/Информация : Digital Theater Systems
Режим : 16
Параметр Endianness формата : Big
Идентификатор кодека : A_DTS
Продолжительность : 1 ч. 31 м.
Вид битрейта : Постоянный
Битрейт : 1509 Кбит/сек
Каналы : 6 каналов
Расположение каналов : Front: L C R, Side: L R, LFE
Частота : 48,0 КГц
Битовая глубина : 16 бит
Метод сжатия : С потерями
Размер потока : 984 Мбайт (8%)
Заголовок : Original
Язык : English
Default : Нет
Forced : Нет

Текст
Идентификатор : 5
Формат : UTF-8
Идентификатор кодека : S_TEXT/UTF8
Идентификатор кодека/Информация : UTF-8 Plain Text
Заголовок : английский
Язык : English
Default : Нет
Forced : Нет

---[Information] [06.04.2014 9:32:55] raw [info]: 1920x1080p 1:1 @ 24000/1001 fps (cfr)
---[Information] [06.04.2014 9:32:55] x264 [info]: using SAR=1/1
---[Information] [06.04.2014 9:32:55] x264 [info]: using cpu capabilities: MMX2 SSE2Fast SSSE3 SSE4.2
---[Information] [06.04.2014 9:32:55] x264 [info]: profile High, level 4.1
---[Information] [06.04.2014 20:10:56] x264 [info]: frame I:856 Avg QP:14.10 size:284926
---[Information] [06.04.2014 20:10:56] x264 [info]: frame P:32478 Avg QP:14.71 size:134879
---[Information] [06.04.2014 20:10:56] x264 [info]: frame B:97809 Avg QP:16.76 size: 59196
---[Information] [06.04.2014 20:10:56] x264 [info]: consecutive B-frames: 1.9% 2.7% 5.6% 58.7% 16.6% 12.3% 0.8% 0.5% 0.9%
---[Information] [06.04.2014 20:10:56] x264 [info]: mb I I16..4: 12.3% 72.0% 15.7%
---[Information] [06.04.2014 20:10:56] x264 [info]: mb P I16..4: 2.0% 34.2% 2.6% P16..4: 22.4% 19.5% 11.4% 0.0% 0.0% skip: 7.7%
---[Information] [06.04.2014 20:10:56] x264 [info]: mb B I16..4: 0.3% 5.8% 0.4% B16..8: 31.3% 11.3% 4.3% direct:15.7% skip:30.8% L0:38.6% L1:41.8% BI:19.6%
---[Information] [06.04.2014 20:10:56] x264 [info]: 8x8 transform intra:87.5% inter:44.1%
---[Information] [06.04.2014 20:10:56] x264 [info]: coded y,uvDC,uvAC intra: 96.9% 86.5% 61.9% inter: 40.7% 31.6% 2.1%
---[Information] [06.04.2014 20:10:56] x264 [info]: i16 v,h,dc,p: 17% 5% 24% 55%
---[Information] [06.04.2014 20:10:56] x264 [info]: i8 v,h,dc,ddl,ddr,vr,hd,vl,hu: 12% 9% 24% 7% 9% 8% 9% 9% 12%
---[Information] [06.04.2014 20:10:56] x264 [info]: i4 v,h,dc,ddl,ddr,vr,hd,vl,hu: 11% 6% 6% 10% 15% 14% 14% 11% 13%
---[Information] [06.04.2014 20:10:56] x264 [info]: i8c dc,h,v,p: 51% 23% 18% 8%
---[Information] [06.04.2014 20:10:56] x264 [info]: Weighted P-Frames: Y:2.4% UV:1.1%
---[Information] [06.04.2014 20:10:56] x264 [info]: ref P L0: 56.9% 8.7% 21.5% 12.0% 0.8% 0.0%
---[Information] [06.04.2014 20:10:56] x264 [info]: ref B L0: 89.6% 8.0% 2.4%
---[Information] [06.04.2014 20:10:56] x264 [info]: ref B L1: 96.2% 3.8%
---[Information] [06.04.2014 20:10:56] x264 [info]: kb/s:15231.94
---[Information] [06.04.2014 20:10:56] encoded 131143 frames, 3.43 fps, 15231.94 kb/s
---[Information] [06.04.2014 20:10:56] avs [info]: AviSynth 2.60, build:May 25 2011 [19:58:41]
---[Information] [06.04.2014 20:10:56] avs [info]: Video colorspace: YV12
---[Information] [06.04.2014 20:10:56] avs [info]: Video resolution: 1920x1080
---[Information] [06.04.2014 20:10:56] avs [info]: Video framerate: 24000/1001
---[Information] [06.04.2014 20:10:56] avs [info]: Video framecount: 131143
---[Information] [06.04.2014 20:10:56] avs4x264 [info]: "x264_64" - --level 4.1 --tune film --crf 17.0 --keyint 230 --bframes 8 --b-adapt 2 --ref 4 --vbv-bufsize 50000 --vbv-maxrate 40000 --no-mbtree --merange 32 --me umh --subme 10 --trellis 2 --no-fast-pskip --sar 1:1 --output "D:RipDevushka naprotiv.2007.x264.BDRipDevushka naprotiv.2007.x264.BDRip.1080p.mkv" --frames 131143 --fps 24000/1001 --input-res 1920x1080 --input-csp i420
--[Information] [06.04.2014 20:10:57] Final statistics
---[Information] [06.04.2014 20:10:57] Constant Quality Mode: Quality 17 computed...
---[Information] [06.04.2014 20:10:57] Video Bitrate Obtained (approximate): 15233 kbit/s
--[Information] [06.04.2014 20:10:57] MediaInfo
---[Information] File: D:RipDevushka naprotiv.2007.x264.BDRipDevushka naprotiv.2007.x264.BDRip.1080p.mkvСкриншоты

ЗалилРазмер: 11.91 ГБ
О фильме: Подросток Дэвид Морган во время ловли раков знакомится со своей новой соседкой 16-летней Меган, которая со своей 10-летней сестрой Сьюзан живёт в семье Чендлеров. Миссис Чендлер, которую дети зовут Руфь, не самая хорошая мать. У неё трое сыновей, которым она разрешает пить пиво и иногда заводит с ними непристойные разговоры. Меган и Сьюзан непросто живется в доме тётушки Руфь. Они вынуждены терпеть побои и унижения со стороны членов семьи. Меган не выдерживает и докладывает об этом шерифу, за что Руфь решает её проучить. Дэвид застал Руфь и её сыновей за истязаниями Меган. Он не мог уснуть всю ночь и решил помочь ей…
Экранизация одноимённого романа Джека Кетчама.

Аудио 2: русский, 48 kHz, DTS, 6 ch, 1509 kbps avg, [Авторский, Антон Алексеев]
Аудио 3: английский, 48 kHz, DTS, 6 ch, 1509 kbps avg, [Оригинал]
Субтитры: английские

Выпущено: США, Modern Girl Productions, Modernciné

Если у вас возникли проблемы с закачкой Девушка напротив / The Girl Next Door (2007) BDRip 1080p by msltel | P2, A, перейдите по ссылке - там вы найдете решение своей проблемы.

Категория: Зарубежные фильмы

 

Скачать Девушка напротив / The Girl Next Door (2007) BDRip 1080p by msltel | P2, A бесплатно без регистрации

 

Информация
Посетители, находящиеся в группе Гости, не могут оставлять комментарии к данной публикации.
 
 
Скачать Девушка напротив / The Girl Next Door (2007) BDRip 1080p by msltel | P2, A бесплатно без регистрацииCopyright © 2019 .