Скачать Долгий поцелуй на ночь / The Long Kiss Goodnight (1996) BDRip-AVC от 0ptimus | P, P2, A бесплатно без регистрации





Режиссер: Ренни Харлин
Перевод: Профессиональный многоголосый, профессиональный двухголосый, авторский одноголосый

Релиз от: ЗалилКодек: h264
Название: Долгий поцелуй на ночь
Продолжительность: 02:00:33
Страна: США
Студия: Forge, New Line Cinema
Год выхода: 1996
Субтитры: Русские (Киномания, Престиж, SvDVD), английские

MediaInfo
Полное имя : The.Long.Kiss.Goodnight.1996.x264.BDRip-AVC.0ptimus.mkv
Формат : Matroska
Версия формата : Version 2
Размер файла : 3,44 Гбайт
Продолжительность : 2 ч. 0 м.
Общий поток : 4083 Кбит/сек
Название фильма : Долгий поцелуй на ночь | The Long Kiss Goodnight [1996] -= BDRip (AVC) by 0ptimus =-
Дата кодирования : UTC 2014-03-30 09:19:56
Программа кодирования : mkvmerge v6.6.0 ('The Edge Of The In Between') built on Dec 1 2013 17:55:00
Библиотека кодирования : libebml v1.3.0 + libmatroska v1.4.1

Видео
Идентификатор : 1
Формат : AVC
Формат/Информация : Advanced Video Codec
Профиль формата : High@L4.1
Параметр CABAC формата : Да
Параметр ReFrames формата : 14 кадров
Идентификатор кодека : V_MPEG4/ISO/AVC
Продолжительность : 2 ч. 0 м.
Битрейт : 2931 Кбит/сек
Ширина : 1024 пикселя
Высота : 426 пикселей
Соотношение сторон : 2,40:1
Режим частоты кадров : Постоянный
Частота кадров : 23,976 кадра/сек
Цветовое пространство : YUV
Субдискретизация насыщенности : 4:2:0
Битовая глубина : 8 бит
Тип развёртки : Прогрессивная
Бит/(Пиксели*Кадры) : 0.280
Размер потока : 2,40 Гбайт (70%)
Заголовок : Rip by 0ptimus
Библиотека кодирования : x264 core 125 r2208 d9d2288
Настройки программы : cabac=1 / ref=14 / deblock=1:-2:-1 / analyse=0x3:0x113 / me=umh / subme=11 / psy=1 / psy_rd=1.00:0.20 / mixed_ref=1 / me_range=32 / chroma_me=1 / trellis=2 / 8x8dct=1 / cqm=0 / deadzone=21,11 / fast_pskip=0 / chroma_qp_offset=-3 / threads=4 / lookahead_threads=1 / sliced_threads=0 / nr=0 / decimate=0 / interlaced=0 / bluray_compat=0 / constrained_intra=0 / bframes=11 / b_pyramid=2 / b_adapt=2 / b_bias=0 / direct=3 / weightb=1 / open_gop=0 / weightp=2 / keyint=240 / keyint_min=23 / scenecut=40 / intra_refresh=0 / rc_lookahead=40 / rc=2pass / mbtree=0 / bitrate=2931 / ratetol=1.0 / qcomp=0.60 / qpmin=0 / qpmax=69 / qpstep=4 / cplxblur=20.0 / qblur=0.5 / vbv_maxrate=50000 / vbv_bufsize=50000 / nal_hrd=none / ip_ratio=1.40 / pb_ratio=1.30 / aq=1:1.00
Язык : English
Default : Да
Forced : Да

Аудио #1
Идентификатор : 2
Формат : AC-3
Формат/Информация : Audio Coding 3
Расширение режима : CM (complete main)
Параметр Endianness формата : Big
Идентификатор кодека : A_AC3
Продолжительность : 2 ч. 0 м.
Вид битрейта : Постоянный
Битрейт : 384 Кбит/сек
Каналы : 6 каналов
Расположение каналов : Front: L C R, Side: L R, LFE
Частота : 48,0 КГц
Битовая глубина : 16 бит
Метод сжатия : С потерями
Размер потока : 331 Мбайт (9%)
Заголовок : Многоголосый [Киномания] AC3 5.1 @ 384 kbps
Язык : Russian
Default : Да
Forced : Да

Аудио #2
Идентификатор : 3
Формат : AC-3
Формат/Информация : Audio Coding 3
Расширение режима : CM (complete main)
Параметр Endianness формата : Big
Идентификатор кодека : A_AC3
Продолжительность : 2 ч. 0 м.
Вид битрейта : Постоянный
Битрейт : 384 Кбит/сек
Каналы : 6 каналов
Расположение каналов : Front: L C R, Side: L R, LFE
Частота : 48,0 КГц
Битовая глубина : 16 бит
Метод сжатия : С потерями
Размер потока : 331 Мбайт (9%)
Заголовок : Авторский [Андрей Гаврилов] AC3 5.1 @ 384 kbps
Язык : Russian
Default : Нет
Forced : Нет

Аудио #3
Идентификатор : 4
Формат : AC-3
Формат/Информация : Audio Coding 3
Расширение режима : CM (complete main)
Параметр Endianness формата : Big
Идентификатор кодека : A_AC3
Продолжительность : 2 ч. 0 м.
Вид битрейта : Постоянный
Битрейт : 384 Кбит/сек
Каналы : 6 каналов
Расположение каналов : Front: L C R, Side: L R, LFE
Частота : 48,0 КГц
Битовая глубина : 16 бит
Метод сжатия : С потерями
Размер потока : 331 Мбайт (9%)
Заголовок : AC3 5.1 @ 384 kbps
Язык : English
Default : Нет
Forced : Нет

Текст #1
Идентификатор : 5
Формат : UTF-8
Идентификатор кодека : S_TEXT/UTF8
Идентификатор кодека/Информация : UTF-8 Plain Text
Заголовок : Киномания
Язык : Russian
Default : Нет
Forced : Нет

Текст #2
Идентификатор : 6
Формат : UTF-8
Идентификатор кодека : S_TEXT/UTF8
Идентификатор кодека/Информация : UTF-8 Plain Text
Заголовок : Престиж
Язык : Russian
Default : Нет
Forced : Нет

Текст #3
Идентификатор : 7
Формат : UTF-8
Идентификатор кодека : S_TEXT/UTF8
Идентификатор кодека/Информация : UTF-8 Plain Text
Заголовок : SvDVD
Язык : Russian
Default : Нет
Forced : Нет

Текст #4
Идентификатор : 8
Формат : UTF-8
Идентификатор кодека : S_TEXT/UTF8
Идентификатор кодека/Информация : UTF-8 Plain Text
Язык : English
Default : Нет
Forced : Нет

Меню
00:00:00.000 : :Opening Titles
00:06:51.230 : :Bed Agreement
00:09:05.632 : :Party Crashers
00:13:36.442 : :Eye-Opening Chat
00:15:46.832 : :Mom's Cooking
00:19:16.459 : :A Cold, Hard Lesson
00:22:06.969 : :Visitor From the Past
00:24:51.461 : :Quest for the Truth
00:30:07.406 : :Calling Information
00:32:34.847 : :Putting it Together
00:39:25.074 : :Station Identification
00:44:09.926 : :The Truth of the Matter
00:47:33.535 : :Farmboy Flashback
00:51:59.330 : :Wheel of Torture
00:59:48.734 : :Back to Her Roots
01:03:52.463 : :First Contact
01:09:50.534 : :The Key to Getting Out
01:15:14.506 : :Dangerous Ice Capades
01:17:02.827 : :Celluar Demands
01:19:10.208 : :Phone Tag
01:22:45.853 : :Rescue Attempt
01:28:15.840 : :Locked Into a Bad Situation
01:36:02.235 : :Going in Alone
01:36:53.388 : :There's No Stopping Her
01:42:16.354 : :Ememies Collide
01:47:24.275 : :Timed to Go
01:51:49.067 : :Participant Recognition
01:54:23.529 : :End Credits
Скриншоты


Видео: 2931 Кбит/с, 1024x426, 23.976 кадр/с

О фильме:
Восемь лет назад школьная учительница Саманта Кейн перенесла полную потерю памяти. Она живет с восьмилетней дочкой счастливой семейной жизнью и не подозревает о своем кровавом прошлом. Ведь когда-то она была агентом Чарли Бэлтимор, выполнявшим секретные задания ЦРУ. После аварии, шокированная неожиданным возвращением некоторых навыков профессионального киллера, Саманта пытается разобраться в своем прошлом. Детектив Митч Хенесси, начавший с расследования жизни простой учительницы, оказывается втянутым вместе с Самантой в секретную операцию ЦРУ.



Жанр: Боевик, триллер
Качество: BDRip-AVC
0ptimus Оценка9.4 из 10 (5 голосов, самая низкая оценка - 7, самая высокая - 10) КатегорияЗарубежные фильмы Раздают0 Качают1 Сидер замечен02-04-2019 9:19:06 (2 месяца назад) Добавлен15-05-2014 11:57:11 (62 месяца назад) Размер5.05 GB (5427608750 Bytes)Оригинальное название: The Long Kiss Goodnight
В ролях: Джина Дэвис, Сэмюэл Л. Джексон, Патрик Малахайд, Крэйг Бирко, Брайан Кокс, Дэвид Морс, Дж. Д. Спрэдлин, Том Амандес, Ивонн Зима, Мелина Канакаредес, Алан Норт

Долгий поцелуй на ночь
| The Long Kiss Goodnight |


Информация о фильме
Звук:
• №1: Русский (AC3, 6 ch, 384 Кбит/с) Профессиональный многоголосый [Киномания]
• №2: Русский (AC3, 6 ch, 384 Кбит/с) Авторский одноголосый [Андрей Гаврилов]
• №3: Английский (AC3, 6 ch, 384 Кбит/с)
Отдельно:
• №4: Русский (AC3, 6 ch, 384 Кбит/с) Профессиональный двухголосый [Петр Гланц и Инна Королева]
• №5: Русский (AC3, 6 ch, 384 Кбит/с) Профессиональный двухголосый [Союз-Видео] - R5
• №6: Русский (AC3, 2 ch, 192 Кбит/с) Профессиональный двухголосый [Союз-Видео] - VHS
• №7: Русский (AC3, 6 ch, 384 Кбит/с) Авторский одноголосый [Юрий Живов]
• №8: Русский (AC3, 6 ch, 384 Кбит/с) Авторский одноголосый [Диктор CDV]
• №9: Украинский (AC3, 2 ch, 192 Кбит/с) Профессиональный многоголосый [ICTV]

Если у вас возникли проблемы с закачкой Долгий поцелуй на ночь / The Long Kiss Goodnight (1996) BDRip-AVC от 0ptimus | P, P2, A, перейдите по ссылке - там вы найдете решение своей проблемы.

Категория: Зарубежные фильмы

 

Скачать Долгий поцелуй на ночь / The Long Kiss Goodnight (1996) BDRip-AVC от 0ptimus | P, P2, A бесплатно без регистрации

 

Информация
Посетители, находящиеся в группе Гости, не могут оставлять комментарии к данной публикации.
 
 
Скачать Долгий поцелуй на ночь / The Long Kiss Goodnight (1996) BDRip-AVC от 0ptimus | P, P2, A бесплатно без регистрацииCopyright © 2019 .