Скачать Чудо-остров, или Полесские робинзоны (2013) DVB от AND03AND бесплатно без регистрации






Информация о фильме
Количество серий: 2 из 2
Bartimeyse иВидео: MPEG4 Video (H264) 720(785)x576 (49:36) 25fps, 2 235 kb/s
PavelDAS. Обоим большое спасибо!

Оператор-постановщик: Сергей Милешкин
Студия: Беларусьфильм
Оригинальная аудиодорожка: русский

Продолжительность: 00:47:36 + 00:48:34
Страна: Республика Беларусь
Полесские робинзоны»

"Чудо-остров, или Полесские робинзоны" – это история о приключениях современных белорусских школьников Ильи, Мирона и его сестры Юли, которые отправляются на поиски острова, описанного Янкой Мавром в знаменитой повести «Полесские робинзоны».
Помимо детей в те же края отправляется охотник за сокровищами Юрий. Дед Мирона и Юльки Семен Владленович становится проводником «черного копателя» в полесских болотах.
Преодолев немало препятствий и трудностей, юные искатели приключений попадают на удивительный Бобровый остров, заповедное место в лесу, в котором сходятся времена и открыты пути в иное измерение. Здесь, на Чудо-острове, дети попадают во владения волшебника и чернокнижника Пана и встречаются со своими сверстниками – главными героями повести Янки Мавра «Полесские робинзоны» Виктором и Мироном…
Чтобы преодолеть все препятствия Илье, Мирону и Юле понадобятся храбрость, знания и, самое главное, дружба.

AND03AND Оценка10 из 10 (1 голосов, самая низкая оценка - 10, самая высокая - 10) КатегорияНаши фильмы Раздают3 Качают0 Сидер замечен12-06-2019 9:19:12 (4 минуты назад) Добавлен30-04-2017 15:24:00 (26 месяцев назад) Размер1.75 GB (1875955556 Bytes)Жанр: детский, приключения, мистика
Другие экранизации повести Янка Мавра «Полесские робинзоны»:
Неоткрытые острова (1974)
http://rutor.is/torrent/387615

Запись потокаКодек: AVC (H264)
Семпл

MediaInfo
General
ID : 1 (0x1)
Complete name : D:Новая земля 2Художественные фильмыЧудо-остров, или Полесские робинзоны (2013)Чудо-остров, или Полесские робинзоны 1-2 (2013).ts
Format : MPEG-TS
File size : 893 MiB
Duration : 47 min
Overall bit rate mode : Variable
Overall bit rate : 2 624 kb/s

Video
ID : 801 (0x321)
Menu ID : 1 (0x1)
Format : AVC
Format/Info : Advanced Video Codec
Format profile : Main@L3
Format settings, CABAC : Yes
Format settings, ReFrames : 4 frames
Codec ID : 27
Duration : 47 min
Bit rate : 2 235 kb/s
Width : 720 pixels
Height : 576 pixels
Display aspect ratio : 4:3
Frame rate : 25.000 FPS
Standard : PAL
Color space : YUV
Chroma subsampling : 4:2:0
Bit depth : 8 bits
Scan type : MBAFF
Scan type, store method : Separated fields
Scan order : Top Field First
Bits/(Pixel*Frame) : 0.216
Stream size : 761 MiB (85%)
Color range : Limited
Color primaries : BT.601 PAL
Transfer characteristics : BT.470 System B, BT.470 System G
Matrix coefficients : BT.601

Audio
ID : 802 (0x322)
Menu ID : 1 (0x1)
Format : MPEG Audio
Format version : Version 1
Format profile : Layer 2
Codec ID : 3
Duration : 47 min
Bit rate mode : Constant
Bit rate : 256 kb/s
Channel(s) : 2 channels
Sampling rate : 48.0 kHz
Compression mode : Lossy
Stream size : 87.2 MiB (10%)
Language : English

Скриншот c названием фильма



Скриншоты ЗалилНазвание: Чудо-остров, или Полесские робинзоны
Звук: MPEG Audio 48000Hz stereo 256kbps

Год выхода: 2013
Полесские робинзоны (1934) (немой)
и
Премьера: 2014 прокат киноверсии в Беларуси

Качество: DVB
Авторы сценария: Конев Федор Егорович, Конев Егор Федорович
О фильме:
Детский приключенческий фильм по мотивам знаменитой повести Янка Мавра «Производство: Беларусьфильм
В ролях: Анастасия Кравченя, Александр Талако, Михаил Каранецкий, Егор Розсудовский, Егор Шик, Александр Ткаченок, Геннадий Овсянников, Владимир Иванов, Игорь Денисов, Сергей Власов

*.ts с наземного цифрового телеканала "Беларусь 3".

Финальные титры практически не видны из-за анонса врезанного во время показа интертитров (видно на скрине).

Режиссер: Сычёв Сергей Григорьевич
Художник-постановщик: Чертович Александр Иванович
Благодарность: за помощь с недостающим материаломДоп. информация:

Если у вас возникли проблемы с закачкой Чудо-остров, или Полесские робинзоны (2013) DVB от AND03AND, перейдите по ссылке - там вы найдете решение своей проблемы.

Категория: Наши фильмы

 

Скачать Чудо-остров, или Полесские робинзоны (2013) DVB от AND03AND бесплатно без регистрации

 

Информация
Посетители, находящиеся в группе Гости, не могут оставлять комментарии к данной публикации.
 
 
Скачать Чудо-остров, или Полесские робинзоны (2013) DVB от AND03AND бесплатно без регистрацииCopyright © 2019 .