Скачать Супербратья Марио / Super Mario Bros. (1993) HDRip от Leon-masl | P бесплатно без регистрации






Информация о фильме
О фильме:
Два брата-водопроводчика из Бруклина, Марио Марио и Луиджи Марио, случайно обнаружили совершенно новое измерение. Это подземный мир, в котором правит жестокий тиран Купа, город, населенный людьми-ящерицами, прямыми потомками динозавров.Они жаждут освободиться из подземного плена и под предводительством Купы захватить всю Землю. Ключ к победе хранится в осколке хрустального метеорита, который как драгоценный амулет носит на шее прекрасная юная принцесса Дэйзи. Спасая принцессу, супербратья Марио должны заодно спасти и человеческую цивилизацию…




Жанр: Фантастика, боевик, триллер, фэнтези, комедия, приключения, семейный
leon-masl Оценка10 из 10 (2 голосов, самая низкая оценка - 10, самая высокая - 10) КатегорияЗарубежные фильмы Раздают2 Качают0 Сидер замечен12-06-2019 8:19:12 (4 минуты назад) Добавлен22-02-2015 0:30:35 (52 месяца назад) Размер1.46 GB (1572612096 Bytes)Название: Супербратья Марио
Продолжительность: 01:44:42
Leon-masl ЗалилВ ролях: Боб Хоскинс, Джон Легуизамо, Дэннис Хоппер, Саманта Мэтис, Фишер Стивенс, Ричард Эдсон, Фиона Шоу, Дэна Камински, Джанни Руссо

Качество: HDRip
Перевод: Профессиональный многоголосый (R5)

Страна: США, Великобритания
Год выхода: 1993
Релиз от: Режиссер: Аннабел Джэнкел, Рокки Мортон, Роланд Жоффе, Дин Семлер
Кодек: XviD
Видео: 704x384, 24,000 fps, 1546 kbps
Студия: Allied Filmmakers, Cinergi Pictures Entertainment, Hollywood Pictures
Оригинальное название: Super Mario Bros.
Звук: AC3, 6 ch, 448 kbps, 48.0 khz
MIОбщее
Полное имя : Superbratya.Mario.1993.HDRip.avi
Формат : AVI
Формат/Информация : Audio Video Interleave
Размер файла : 1,46 Гбайт
Продолжительность : 1 ч. 44 м.
Общий поток : 2003 Кбит/сек
Программа кодирования : VirtualDubMod 1.5.10.3 | www.virtualdub-fr.org || (build 2550/release)
Библиотека кодирования : VirtualDubMod build 2550/release

Видео
Идентификатор : 0
Формат : MPEG-4 Visual
Профиль формата : Advanced Simple@L5
Параметр BVOP формата : 1
Параметр QPel формата : Нет
Параметр GMC формата : Без точки перехода
Параметр матрицы формата : Выборочная
Идентификатор кодека : XVID
Идентификатор кодека/Подсказка : XviD
Продолжительность : 1 ч. 44 м.
Битрейт : 1546 Кбит/сек
Ширина : 704 пикс.
Высота : 384 пикс.
Соотношение сторон : 16:9
Частота кадров : 24,000 кадр/сек
Цветовое пространство : YUV
Подвыборка цветности : 4:2:0
Битовая глубина : 8 бит
Тип развёртки : Прогрессивная
Метод сжатия : С потерями
Бит/(Пиксели*Кадры) : 0.238
Размер потока : 1,13 Гбайт (77%)
Библиотека кодирования : XviD 73

Аудио
Идентификатор : 1
Формат : AC-3
Формат/Информация : Audio Coding 3
Расширение режима : CM (complete main)
Идентификатор кодека : 2000
Продолжительность : 1 ч. 44 м.
Вид битрейта : Постоянный
Битрейт : 448 Кбит/сек
Канал(ы) : 6 канала(ов)
Расположение каналов : Front: L C R, Side: L R, LFE
Частота : 48,0 КГц
Битовая глубина : 16 бит
Метод сжатия : С потерями
Размер потока : 335 Мбайт (22%)
Выравнивание : Разделение по промежуткам
Продолжительность промежутка : 42 мс. (1,00 видеокадр)
Время предзагрузки промежутка : 500 msСкриншоты

Если у вас возникли проблемы с закачкой Супербратья Марио / Super Mario Bros. (1993) HDRip от Leon-masl | P, перейдите по ссылке - там вы найдете решение своей проблемы.

Категория: Зарубежные фильмы

 

Скачать Супербратья Марио / Super Mario Bros. (1993) HDRip от Leon-masl | P бесплатно без регистрации

 

Информация
Посетители, находящиеся в группе Гости, не могут оставлять комментарии к данной публикации.
 
 
Скачать Супербратья Марио / Super Mario Bros. (1993) HDRip от Leon-masl | P бесплатно без регистрацииCopyright © 2019 .