Скачать Исцеление [01-02 из 02] (2015) HDTVRip от Шкипер бесплатно без регистрации






Информация о фильме
Видео2: 624x352 (1.77:1), 25 fps, XviD build 73 ~1048 kbps avg, 0.19 bit/pixel
Страна: Россия
Название: Исцеление
Качество: HDTVRip
Звук: 48 kHz, MPEG Layer 3, 2 ch, ~128.00 kbps avg
Год выхода: 2015
Студия: Кинокомпания «Русское»
Кодек: XviD
surikmas ОценкаНикто ещё не поставил оценку КатегорияНаши сериалы Раздают0 Качают1 Сидер замечен21-04-2019 18:19:07 (2 месяца назад) Добавлен30-09-2015 19:36:57 (45 месяцев назад) Размер1.46 GB (1563283456 Bytes)Видео: 624x352 (1.77:1), 25 fps, XviD build 73 ~1030 kbps avg, 0.19 bit/pixel
Жанр: Мелодрама
Семпл 1-2 серии
MIGeneral
Complete name : D:Изготовление риповIscelenie.(01.seriya.iz.02).2015.HDTVRip.shkiper.avi
Format : AVI
Format/Info : Audio Video Interleave
File size : 745 MiB
Duration : 1h 29mn
Overall bit rate : 1 168 Kbps
Writing application : VirtualDubMod 1.5.10.3 | www.virtualdub-fr.org || (build 2550/release)
Writing library : VirtualDubMod build 2550/release

Video
ID : 0
Format : MPEG-4 Visual
Format profile : Advanced Simple@L5
Format settings, BVOP : 1
Format settings, QPel : No
Format settings, GMC : No warppoints
Format settings, Matrix : Custom
Codec ID : XVID
Codec ID/Hint : XviD
Duration : 1h 29mn
Bit rate : 1 030 Kbps
Width : 624 pixels
Height : 352 pixels
Display aspect ratio : 16:9
Frame rate : 25.000 fps
Color space : YUV
Chroma subsampling : 4:2:0
Bit depth : 8 bits
Scan type : Progressive
Compression mode : Lossy
Bits/(Pixel*Frame) : 0.188
Stream size : 657 MiB (88%)
Writing library : XviD 73

Audio
ID : 1
Format : MPEG Audio
Format version : Version 1
Format profile : Layer 3
Mode : Joint stereo
Mode extension : MS Stereo
Codec ID : 55
Codec ID/Hint : MP3
Duration : 1h 29mn
Bit rate mode : Constant
Bit rate : 128 Kbps
Channel(s) : 2 channels
Sampling rate : 48.0 KHz
Compression mode : Lossy
Stream size : 81.7 MiB (11%)
Alignment : Aligned on interleaves
Interleave, duration : 40 ms (1.00 video frame)
Interleave, preload duration : 504 ms
Writing library : LAME3.99r
Encoding settings : -m j -V 4 -q 2 -lowpass 17 -b 128
________________
General
Complete name : D:Изготовление риповIscelenie.(02.seriya.iz.02).2015.HDTVRip.shkiper.avi
Format : AVI
Format/Info : Audio Video Interleave
File size : 746 MiB
Duration : 1h 27mn
Overall bit rate : 1 186 Kbps
Writing application : VirtualDubMod 1.5.10.3 | www.virtualdub-fr.org || (build 2550/release)
Writing library : VirtualDubMod build 2550/release

Video
ID : 0
Format : MPEG-4 Visual
Format profile : Advanced Simple@L5
Format settings, BVOP : 1
Format settings, QPel : No
Format settings, GMC : No warppoints
Format settings, Matrix : Custom
Codec ID : XVID
Codec ID/Hint : XviD
Duration : 1h 27mn
Bit rate : 1 048 Kbps
Width : 624 pixels
Height : 352 pixels
Display aspect ratio : 16:9
Frame rate : 25.000 fps
Color space : YUV
Chroma subsampling : 4:2:0
Bit depth : 8 bits
Scan type : Progressive
Compression mode : Lossy
Bits/(Pixel*Frame) : 0.191
Stream size : 659 MiB (88%)
Writing library : XviD 73

Audio
ID : 1
Format : MPEG Audio
Format version : Version 1
Format profile : Layer 3
Mode : Joint stereo
Mode extension : MS Stereo
Codec ID : 55
Codec ID/Hint : MP3
Duration : 1h 27mn
Bit rate mode : Constant
Bit rate : 128 Kbps
Channel(s) : 2 channels
Sampling rate : 48.0 KHz
Compression mode : Lossy
Stream size : 80.5 MiB (11%)
Alignment : Aligned on interleaves
Interleave, duration : 40 ms (1.00 video frame)
Interleave, preload duration : 504 ms
Writing library : LAME3.99r
Encoding settings : -m j -V 4 -q 2 -lowpass 17 -b 128Скриншоты

Субтитры: Отсутствует

Режиссер: Роман Просвирнин
Релиз от: ЗалилПродолжительность: 01:29:13 + 01:27:54
Перевод: Не требуется

В ролях: Ольга Иванова (IV), Сергей Марин, Алексей Анищенко, Мария Горбань, Наталья Рудова, Диана Енакаева, Александр Обласов, Ирина Чериченко, Александр Наумов, Алёна Чехова

О фильме:
Добрая и чуткая Оля работает воспитательницей в детском садике. Она беззаветно любит мужа и мечтает о собственных детях. Но за мирным семейным фасадом скрывается тайна. Муж Денис давно ведет двойную жизнь – на стороне у него подрастает сын, а в семье его удерживают лишь деньги жены. Когда обман оказывается на грани разоблачения, Денис с любовницей затевают осуществление страшного замысла, едва не лишившего Олю жизни…



Если у вас возникли проблемы с закачкой Исцеление [01-02 из 02] (2015) HDTVRip от Шкипер, перейдите по ссылке - там вы найдете решение своей проблемы.

Категория: Наши сериалы

 

Скачать Исцеление [01-02 из 02] (2015) HDTVRip от Шкипер бесплатно без регистрации

 

Информация
Посетители, находящиеся в группе Гости, не могут оставлять комментарии к данной публикации.
 
 
Скачать Исцеление [01-02 из 02] (2015) HDTVRip от Шкипер бесплатно без регистрацииCopyright © 2019 .