Скачать Ловчий смерти 2: Битва титанов / Deathstalker II (1987) BDRip 1080p | P, A бесплатно без регистрации






Информация о фильме
Cубтитры: Английские

Описание: Великий воин вступает в единоборство с коварным королем Джераком и королевой Султаной, которые незаконно захватили королевство, по праву принадлежащее прекрасной принцессе Эви. Ловчего смерти и принцессу поджидает множество опасностей — жестокие пираты, кровожадные амазонки, смертоносные болота, обольстительные ведьмы, зомби и другие ужасные существа, населяющие королевство Джерака. И только последняя битва решит, какое оружие сильнее — меч или колдовство!



Жанр: Фэнтези, комедия, приключения
Название: Ловчий смерти 2: Битва титанов
Формат: MKV
Перевод: Профессиональный (двухголосый закадровый) Ракурс
Ловчий смерти / Deathstalker (1983) BDRip 1080p ЗалилКачество: BDRip 1080p
Перевод: Авторский (одноголосый закадровый) Алексей Михалёв
Год выпуска: 1987
likko Оценка10 из 10 (6 голосов, самая низкая оценка - 10, самая высокая - 10) КатегорияЗарубежные фильмы Раздают0 Качают1 Сидер замечен11-06-2019 14:19:12 (18 часов назад) Добавлен11-10-2016 9:40:19 (32 месяца назад) Размер7.88 GB (8465233927 Bytes)Продолжительность: 01:17:27

Видео кодек: H264
Аудио #3: Английский, Dolby AC3, 48000 Hz, 2ch, 192 kbps

Аудио #2: Русский, Dolby AC3, 48000 Hz, 2ch, 192 kbps - Алексей Михалёв
Страна: Аргентина, США
В ролях: Джон Терлески, Моник Габриэль, Джон Лазар, Тони Нэплс, Мария Сокас, Маркос Воински, Ди Буэр, Жак Арндт, Карина Дави, Джим Уайнорски...

Оригинальное название: Deathstalker II
Аудио #1: Русский, Dolby AC3, 48000 Hz, 2ch, 192 kbps - Ракурс
Режиссер: Джим Уайнорски

Аудио кодек: AC3
Сэмпл

MediaInfo:General
Unique ID : 197686438333178416526074697006638388654 (0x94B905EB1848DA94BFDEDE8D0FEF55AE)
Complete name : F:DVDRip1987 Ловчий смерти 2.mkv
Format : Matroska
Format version : Version 4 / Version 2
File size : 7.88 GiB
Duration : 1 h 17 min
Overall bit rate : 14.6 Mb/s
Movie name : 1987 Deathstalker II / Rip by likko
Encoded date : UTC 2016-10-11 05:43:48
Writing application : mkvmerge v8.3.0 ('Over the Horizon') 64bit
Writing library : libebml v1.3.1 + libmatroska v1.4.2

Video
ID : 1
Format : AVC
Format/Info : Advanced Video Codec
Format profile : High@L4.1
Format settings, CABAC : Yes
Format settings, ReFrames : 5 frames
Codec ID : V_MPEG4/ISO/AVC
Duration : 1 h 17 min
Bit rate : 14.0 Mb/s
Width : 1 920 pixels
Height : 1 080 pixels
Display aspect ratio : 16:9
Frame rate mode : Constant
Frame rate : 23.976 (24000/1001) FPS
Color space : YUV
Chroma subsampling : 4:2:0
Bit depth : 8 bits
Scan type : Progressive
Bits/(Pixel*Frame) : 0.282
Stream size : 7.57 GiB (96%)
Title : 1987 Deathstalker II
Writing library : x264 core 146 r2538 121396c
Encoding settings : cabac=1 / ref=5 / deblock=1:-1:-1 / analyse=0x3:0x133 / me=umh / subme=11 / psy=1 / psy_rd=1.00:0.15 / mixed_ref=1 / me_range=32 / chroma_me=1 / trellis=2 / 8x8dct=1 / cqm=0 / deadzone=21,11 / fast_pskip=0 / chroma_qp_offset=-3 / threads=12 / lookahead_threads=3 / sliced_threads=0 / nr=0 / decimate=1 / interlaced=0 / bluray_compat=0 / constrained_intra=0 / bframes=12 / b_pyramid=2 / b_adapt=2 / b_bias=0 / direct=3 / weightb=1 / open_gop=0 / weightp=2 / keyint=250 / keyint_min=23 / scenecut=40 / intra_refresh=0 / rc=2pass / mbtree=0 / bitrate=14000 / ratetol=1.0 / qcomp=0.60 / qpmin=0 / qpmax=69 / qpstep=4 / cplxblur=20.0 / qblur=0.5 / ip_ratio=1.40 / pb_ratio=1.30 / aq=2:1.00
Language : English
Default : Yes
Forced : No

Audio #1
ID : 2
Format : AC-3
Format/Info : Audio Coding 3
Mode extension : CM (complete main)
Format settings, Endianness : Big
Codec ID : A_AC3
Duration : 1 h 17 min
Bit rate mode : Constant
Bit rate : 192 kb/s
Channel(s) : 2 channels
Channel positions : Front: L R
Sampling rate : 48.0 kHz
Frame rate : 31.250 FPS (1536 spf)
Compression mode : Lossy
Stream size : 106 MiB (1%)
Title : Двухголосый, Ракурс
Language : Russian
Default : Yes
Forced : No

Audio #2
ID : 3
Format : AC-3
Format/Info : Audio Coding 3
Mode extension : CM (complete main)
Format settings, Endianness : Big
Codec ID : A_AC3
Duration : 1 h 17 min
Bit rate mode : Constant
Bit rate : 192 kb/s
Channel(s) : 2 channels
Channel positions : Front: L R
Sampling rate : 48.0 kHz
Frame rate : 31.250 FPS (1536 spf)
Compression mode : Lossy
Stream size : 106 MiB (1%)
Title : Одноголосый, Алексей Михалёв
Language : Russian
Default : No
Forced : No

Audio #3
ID : 4
Format : AC-3
Format/Info : Audio Coding 3
Mode extension : CM (complete main)
Format settings, Endianness : Big
Codec ID : A_AC3
Duration : 1 h 17 min
Bit rate mode : Constant
Bit rate : 192 kb/s
Channel(s) : 2 channels
Channel positions : Front: L R
Sampling rate : 48.0 kHz
Frame rate : 31.250 FPS (1536 spf)
Compression mode : Lossy
Stream size : 106 MiB (1%)
Language : English
Default : No
Forced : No

Text
ID : 5
Format : UTF-8
Codec ID : S_TEXT/UTF8
Codec ID/Info : UTF-8 Plain Text
Duration : 1 h 16 min
Bit rate : 44 b/s
Count of elements : 905
Stream size : 24.9 KiB (0%)
Language : English
Default : No
Forced : No

Menu
00:00:00.000 : en:Chapter 01
00:05:57.565 : en:Chapter 02
00:11:44.704 : en:Chapter 03
00:18:07.461 : en:Chapter 04
00:25:19.935 : en:Chapter 05
00:32:42.543 : en:Chapter 06
00:38:15.334 : en:Chapter 07
00:46:22.488 : en:Chapter 08
00:52:03.787 : en:Chapter 09
00:57:37.829 : en:Chapter 10
01:03:36.896 : en:Chapter 11
01:08:50.251 : en:Chapter 12
01:17:24.681 : en:Chapter 13



Скриншоты:








Видео: MPEG4 Video (H264), 1920x1080, 23.976fps, 14.0 Mbps

Если у вас возникли проблемы с закачкой Ловчий смерти 2: Битва титанов / Deathstalker II (1987) BDRip 1080p | P, A, перейдите по ссылке - там вы найдете решение своей проблемы.

Категория: Зарубежные фильмы

 

Скачать Ловчий смерти 2: Битва титанов / Deathstalker II (1987) BDRip 1080p | P, A бесплатно без регистрации

 

Информация
Посетители, находящиеся в группе Гости, не могут оставлять комментарии к данной публикации.
 
 
Скачать Ловчий смерти 2: Битва титанов / Deathstalker II (1987) BDRip 1080p | P, A бесплатно без регистрацииCopyright © 2019 .