Скачать Близкая зима / Vinterveien (1993) BDRemux 1080р | Sub бесплатно без регистрации






Информация о фильме
Звук: Norwegian: 48 kHz, AC3, 1.0 ch, 192 kbps

Скриншоты
MediaInfoGeneral
Unique ID : 251426262969173833045259808944687657470 (0xBD26EFD66F67D47888E1697B19C7B1FE)
Complete name : Vinterveien.1993.Criterion.BDRemux. rutrаcker.mkv
Format : Matroska
Format version : Version 2
File size : 4.32 GiB
Duration : 34mn 6s
Overall bit rate mode : Variable
Overall bit rate : 18.2 Mbps
Movie name : Release for RuTrackеr
Writing application : mkvmerge v5.0.1 ('Es ist Sommer') built on Nov 6 2011 16:23:40
Writing library : libebml v1.2.2 + libmatroska v1.3.0

Video
ID : 1
Format : AVC
Format/Info : Advanced Video Codec
Format profile : High@L4.1
Format settings, CABAC : Yes
Format settings, ReFrames : 4 frames
Codec ID : V_MPEG4/ISO/AVC
Duration : 34mn 6s
Bit rate mode : Variable
Bit rate : 17.6 Mbps
Maximum bit rate : 37.0 Mbps
Width : 1 920 pixels
Height : 1 080 pixels
Display aspect ratio : 16:9
Frame rate mode : Constant
Frame rate : 23.976 fps
Color space : YUV
Chroma subsampling : 4:2:0
Bit depth : 8 bits
Scan type : Progressive
Bits/(Pixel*Frame) : 0.354
Stream size : 4.19 GiB (97%)
Title : Vinterveien.1993.Criterion.BDRemux. rutrаcker
Language : Norwegian
Default : Yes
Forced : No

Audio
ID : 2
Format : AC-3
Format/Info : Audio Coding 3
Mode extension : CM (complete main)
Format settings, Endianness : Big
Codec ID : A_AC3
Duration : 34mn 6s
Bit rate mode : Constant
Bit rate : 192 Kbps
Channel(s) : 1 channel
Channel positions : Front: C
Sampling rate : 48.0 KHz
Bit depth : 16 bits
Compression mode : Lossy
Stream size : 46.8 MiB (1%)
Language : Norwegian
Default : Yes
Forced : No

Text
ID : 3
Format : UTF-8
Codec ID : S_TEXT/UTF8
Codec ID/Info : UTF-8 Plain Text
Language : Russian
Default : Yes
Forced : No Оценка5 из 10 (1 голосов, самая низкая оценка - 5, самая высокая - 5) КатегорияЗарубежные фильмы Раздают0 Качают0 Сидер замечен01-06-2019 15:19:13 (11 день назад) Добавлен06-02-2018 19:12:45 (16 месяцев назад) Размер4.32 GB (4642041491 Bytes)Страна: Норвегия
В ролях: Рольф Сёдер, Стиг Хенрик Хофф, Эдда Шарп

Видео: MPEG-4 AVC Video, 1920x1080 at 23.976 fps, 18000 kbps
Жанр: короткометражка, драма
Описание: По мотивам рассказа Роя Якобсена. Северная Норвегия. В гости к одинокому старику Альфу неожиданно приезжает племянник из Англии.



Оригинальное название: Vinterveien
Режиссер: Эрик Шёлдбьерг
Оригинальная аудиодорожка: норвежский

Субтитры: русские, английские (hardsub)
Название: Близкая зима
Продолжительность: 00:34:06
Год выхода: 1993
Качество: BDRemux 1080р

Если у вас возникли проблемы с закачкой Близкая зима / Vinterveien (1993) BDRemux 1080р | Sub, перейдите по ссылке - там вы найдете решение своей проблемы.

Категория: Зарубежные фильмы

 

Скачать Близкая зима / Vinterveien (1993) BDRemux 1080р | Sub бесплатно без регистрации

 

Информация
Посетители, находящиеся в группе Гости, не могут оставлять комментарии к данной публикации.
 
 
Скачать Близкая зима / Vinterveien (1993) BDRemux 1080р | Sub бесплатно без регистрацииCopyright © 2019 .