Скачать Спектакль - Трёхгрошовая опера / Трохграшовая опера (1997) DVB от AND03AND бесплатно без регистрации






Информация о фильме
Люси (его дочь) — Светлана Никифорова
Операторы — Владимир Левицкий, Дмитрий Третьяков
Браун (шеф лондонской полиции) — Артур Федорович
Название: Спектакль - Трёхгрошовая опера / Трохграшовая опера
Звук: MP2, 256 kbps, 2 channels, 48 kHz

Маттиас — Анатолий Голуб

Видео: AVC (H264), 720x576 (4:3), 25 fps, 2 109 Kbps
AND03AND ОценкаНикто ещё не поставил оценку КатегорияТелевизор Раздают1 Качают0 Сидер замечен11-06-2019 19:19:13 (8 часов назад) Добавлен09-06-2015 20:30:40 (49 месяцев назад) Размер939.81 MB (985458541 Bytes)Художник — Марина Дударева
О фильме:
Спектакль по одноименной пьесе Бертольта Брехта.
Мэкки, князь лондонского преступного мира, встречает Полли Пичем, дочь короля нищих, и сразу же решает жениться. Свадьба проходит в заброшенном складе, отрезанном от мира при помощи подъемного моста и до отказа набитом подарками, украденными бандой Мэкки для молодожёнов. Браун, начальник полиции, друг и соучастник Мэкки, также приглашён на свадьбу. Однако сам Пичем крайне недоволен союзом своей дочери с Мэкки. Он приходит к Брауну и требует, чтобы Мэкки упрятали за решётку; в противном случае на грядущих празднествах по случаю коронации он выпустит на улицы орды попрошаек, калек и увечных — настоящих или ненастоящих, но поголовно преданных своему хозяину...

Оператор-постановщик — Геннадий Солодов
Студия: Белтелерадиокомпания
Телеверсию подготовили:
Страна: Республика Беларусь
Звукорежиссёр — Татьяна Рубцова


Исходник для данной раздачи, записан с цифрового наземного канала, т.е. DVB-Т, любезно предоставленКодек: AVC (H264)
Жанр: Драма, мюзикл
Год выхода: 1997
Композитор — Борис Серёгин
Режиссер: Витаутас Григалюнас

PavelDAS
За что ему большое спасибо!
Помощь с описанием:Филч — Артур Шуляк
Джонатан Джереми Пичем (владелец фирмы «Друг нищего») — Виктор Васильев
В ролях:
Семпл: http://rusfolder.com/43783525

MediaInfo
General
Unique ID : 1595353925454420929659368479666903480 (0x133410577F043E12D8BB785450699B8)
Complete name : D:Новая земля 2ТелеспектаклиТрёхгрошовая опера (1997)Трёхгрошовая опера (1997).mkv
Format : Matroska
Format version : Version 2
File size : 940 MiB
Duration : 54mn 27s
Overall bit rate : 2 413 Kbps
Writing application : Lavf52.64.2
Writing library : Lavf52.64.2

Video
ID : 1
Format : AVC
Format/Info : Advanced Video Codec
Format profile : Main@L3.0
Format settings, CABAC : Yes
Format settings, ReFrames : 4 frames
Format settings, GOP : M=4, N=24
Codec ID : V_MPEG4/ISO/AVC
Duration : 54mn 27s
Bit rate : 2 109 Kbps
Width : 720 pixels
Height : 576 pixels
Display aspect ratio : 4:3
Original display aspect ratio : 4:3
Frame rate mode : Constant
Frame rate : 25.000 fps
Standard : PAL
Color space : YUV
Chroma subsampling : 4:2:0
Bit depth : 8 bits
Scan type : MBAFF
Scan order : Top Field First
Bits/(Pixel*Frame) : 0.203
Stream size : 821 MiB (87%)
Default : Yes
Forced : No
Color primaries : BT.601 PAL
Transfer characteristics : BT.470 System B, BT.470 System G
Matrix coefficients : BT.601
Color range : Limited

Audio
ID : 2
Format : MPEG Audio
Format version : Version 1
Format profile : Layer 2
Codec ID : A_MPEG/L2
Codec ID/Hint : MP2
Duration : 54mn 27s
Bit rate mode : Constant
Bit rate : 256 Kbps
Channel(s) : 2 channels
Sampling rate : 48.0 KHz
Compression mode : Lossy
Stream size : 99.7 MiB (11%)
Language : English
Default : Yes
Forced : No


Скриншоты ЗалилСмит — Евгений Журавкин
*.ts с наземного цифрового телеканала "Беларусь 3", ремукс вРежиссёр — Надежда Горкунова
Полли Пичем (его дочь) — Анна Легчилова
Качество: DVB
Дженни-Малина — Ольга Лужковская
Костюмы — Алёна Игруша

*.mkv программой VideoReDo.



Макхит (по кличке Мэкки-Нож) — Игорь Забара
Продолжительность: 00:54:27
Интертитры: Белорусский
Селия Пичем (его жена) — Майя Мартыненко
Аранжировка — Андрей Жуков, Константин Горячий
Язык: Русский

Bartimeyse
Запись потокаПеревод: Не требуется
Доп. информация:

Если у вас возникли проблемы с закачкой Спектакль - Трёхгрошовая опера / Трохграшовая опера (1997) DVB от AND03AND, перейдите по ссылке - там вы найдете решение своей проблемы.

Категория: Телевизор

 

Скачать Спектакль - Трёхгрошовая опера / Трохграшовая опера (1997) DVB от AND03AND бесплатно без регистрации

 

Информация
Посетители, находящиеся в группе Гости, не могут оставлять комментарии к данной публикации.
 
 
Скачать Спектакль - Трёхгрошовая опера / Трохграшовая опера (1997) DVB от AND03AND бесплатно без регистрацииCopyright © 2019 .