Скачать Телефон пополам / Интимный разговор / Pillow Talk (1959) BDRip-AVC бесплатно без регистрации






Аудио (ENG): 48 kHz, AC3, 2/0 (L, R) ch, ~192 kbps |Режиссер: Майкл Гордон / Michael Gordon

Видео кодек: H.264
О фильме: Обладатели спаренного телефонного номера дизайнер Джен Морроу и композитор Брэд Аллен никогда друг друга не видели, но люто друг друга ненавидят. Брэд каждый вечер играет своим многочисленным поклонницам одну и ту же мелодию, а Джен подслушивает, возмущается и жалуется в телефонную компанию. За Джен ухаживает миллионер Джонатан Форбс, который по стечению обстоятельств является другом и спонсором Брэда.
Однажды он рассказывает Брэду о своей возлюбленной и о ненормальном типе, с которым ей приходится делить телефонный номер. Бред догадывается, что речь идет о нем. Описание внешности неприветливой дамы на другом конце провода интригует его, а когда он случайно встречается с Джен в ресторане, узнав ее голос, он решает, что игра стоит свеч…

Продолжительность: 01:42:25
HDClub)
В ролях: Рок Хадсон, Дорис Дэй, Тони Рэндалл, Тельма Риттер, Ник Эдамс, Джулия Миде, Аллен Дженкинс, Марсель Далио, Ли Патрик, Мэри МакКарти

Навигация по главам: есть



MVO НТВ+
capral555 ОценкаНикто ещё не поставил оценку КатегорияЗарубежные фильмы Раздают0 Качают0 Сидер замечен31-05-2019 4:19:11 (12 дня назад) Добавлен13-06-2012 14:46:00 (85 месяцев назад) Размер3.50 GB (3753065028 Bytes)Качество: BDRip-AVC (Source: BD-Remux 1080p /Source............................vs............................Encode



Скриншоты ЗалилСтрана: США
Субтитры: русские, английские
Аудио (RUS): 48 kHz, AC3, 2/0 (L, R) ch, ~192 kbps |Original
Sample: narod | MediaFire | Multi-UP

MIОбщее
Полное имя : E:Pillow.Talk.1959.BDRip-AVC.x264.mkv
Формат : Matroska
Версия формата : Version 2
Размер файла : 3,50 Гбайт
Продолжительность : 1 ч. 42 м.
Общий поток : 4886 Кбит/сек
Дата кодирования : UTC 2012-06-07 12:45:00
Программа кодирования : mkvmerge v5.6.0 ('Kenya Kane') built on May 27 2012 16:44:04
Библиотека кодирования : libebml v1.2.3 + libmatroska v1.3.0

Видео
Идентификатор : 1
Формат : AVC
Формат/Информация : Advanced Video Codec
Профиль формата : High@L4.1
Параметр CABAC формата : Да
Параметр ReFrames формата : 15 кадров
Идентификатор кодека : V_MPEG4/ISO/AVC
Продолжительность : 1 ч. 42 м.
Битрейт : 4499 Кбит/сек
Ширина : 1008 пикселей
Высота : 428 пикселей
Соотношение сторон : 2,35:1
Частота кадров : 23,976 кадра/сек
Цветовое пространство : YUV
Субдискретизация насыщенности : 4:2:0
Битовая глубина : 8 бит
Тип развёртки : Прогрессивная
Бит/(Пиксели*Кадры) : 0.435
Размер потока : 3,15 Гбайт (90%)
Заголовок : 1008x428 (2.35:1), 23.976 fps, 4499 kbps, 0.435 bit/pixel
Библиотека кодирования : x264 core 123 r2184+681M 5d72658
Настройки программы : cabac=1 / ref=15 / deblock=1:-2:-1 / analyse=0x3:0x133 / me=umh / subme=10 / psy=1 / fade_compensate=0.00 / psy_rd=1.00:0.05 / mixed_ref=1 / me_range=48 / chroma_me=1 / trellis=2 / 8x8dct=1 / cqm=0 / deadzone=21,11 / fast_pskip=0 / chroma_qp_offset=-3 / threads=6 / sliced_threads=0 / nr=0 / decimate=0 / interlaced=0 / bluray_compat=0 / constrained_intra=0 / fgo=0 / bframes=10 / b_pyramid=2 / b_adapt=2 / b_bias=0 / direct=3 / weightb=1 / open_gop=0 / weightp=2 / keyint=240 / keyint_min=23 / scenecut=40 / intra_refresh=0 / rc=2pass / mbtree=0 / bitrate=4499 / ratetol=1.0 / qcomp=0.75 / qpmin=0 / qpmax=69 / qpstep=4 / cplxblur=20.0 / qblur=0.5 / ip_ratio=1.40 / pb_ratio=1.20 / aq=1:1.00
Язык : English
Коэффициенты матрицы : BT.709-5, BT.1361, IEC 61966-2-4 709, SMPTE RP177

Аудио #1
Идентификатор : 2
Формат : AC-3
Формат/Информация : Audio Coding 3
Расширение режима : CM (complete main)
Идентификатор кодека : A_AC3
Продолжительность : 1 ч. 42 м.
Вид битрейта : Постоянный
Битрейт : 192 Кбит/сек
Каналы : 2 канала
Расположение каналов : Front: L R
Частота : 48,0 КГц
Битовая глубина : 16 бит
Метод сжатия : С потерями
Размер потока : 141 Мбайт (4%)
Заголовок : 48 kHz, AC3, 2.0 ch, 192 kbps - MVO (НТВ+)
Язык : Russian

Аудио #2
Идентификатор : 3
Формат : AC-3
Формат/Информация : Audio Coding 3
Расширение режима : CM (complete main)
Идентификатор кодека : A_AC3
Продолжительность : 1 ч. 42 м.
Вид битрейта : Постоянный
Битрейт : 192 Кбит/сек
Каналы : 2 канала
Расположение каналов : Front: L R
Частота : 48,0 КГц
Битовая глубина : 16 бит
Метод сжатия : С потерями
Размер потока : 141 Мбайт (4%)
Заголовок : 48 kHz, AC3, 2.0 ch, 192 kbps - Original
Язык : English

Текст #1
Идентификатор : 4
Формат : UTF-8
Идентификатор кодека : S_TEXT/UTF8
Идентификатор кодека/Информация : UTF-8 Plain Text
Заголовок : Русские
Язык : Russian

Текст #2
Идентификатор : 5
Формат : UTF-8
Идентификатор кодека : S_TEXT/UTF8
Идентификатор кодека/Информация : UTF-8 Plain Text
Заголовок : Английские
Язык : English

Меню
00:00:00.000 : :Chapter 1
00:02:09.461 : :Chapter 2
00:09:53.884 : :Chapter 3
00:12:33.877 : :Chapter 4
00:19:46.810 : :Chapter 5
00:28:13.108 : :Chapter 6
00:33:46.232 : :Chapter 7
00:52:08.792 : :Chapter 8
00:56:22.420 : :Chapter 9
01:01:18.299 : :Chapter 10
01:06:12.969 : :Chapter 11
01:11:53.267 : :Chapter 12
01:16:42.305 : :Chapter 13
01:22:21.102 : :Chapter 14
01:25:31.084 : :Chapter 15
01:28:28.594 : :Chapter 16
01:37:31.845 : :Chapter 17
01:41:15.861 : :Chapter 18
01:42:24.930 : :Chapter 19x264 logx264 [info]: frame I:889 Avg QP:19.04 size: 99781 PSNR Mean Y:43.31 U:46.19 V:46.37 Avg:44.05 Global:43.74
x264 [info]: frame P:28438 Avg QP:21.83 size: 40332 PSNR Mean Y:40.61 U:44.38 V:44.78 Avg:41.55 Global:41.27
x264 [info]: frame B:118010 Avg QP:22.56 size: 18818 PSNR Mean Y:39.48 U:43.53 V:44.03 Avg:40.46 Global:40.17
x264 [info]: consecutive B-frames: 0.9% 0.7% 4.0% 14.0% 18.1% 57.5% 3.7% 0.5% 0.3% 0.1% 0.2%
x264 [info]: mb I I16..4: 9.0% 70.8% 20.2%
x264 [info]: mb P I16..4: 0.2% 21.3% 1.1% P16..4: 32.6% 24.5% 17.3% 1.7% 0.5% skip: 0.6%
x264 [info]: mb B I16..4: 0.0% 3.5% 0.1% B16..8: 36.1% 12.4% 5.7% direct:15.3% skip:27.0% L0:42.4% L1:40.2% BI:17.5%
x264 [info]: 8x8 transform intra:93.5% inter:61.4%
x264 [info]: direct mvs spatial:98.3% temporal:1.7%
x264 [info]: coded y,uvDC,uvAC intra: 99.2% 94.4% 81.4% inter: 49.0% 41.6% 16.3%
x264 [info]: i16 v,h,dc,p: 35% 8% 31% 26%
x264 [info]: i8 v,h,dc,ddl,ddr,vr,hd,vl,hu: 10% 7% 17% 9% 12% 12% 11% 10% 12%
x264 [info]: i4 v,h,dc,ddl,ddr,vr,hd,vl,hu: 16% 7% 4% 9% 14% 15% 12% 12% 11%
x264 [info]: i8c dc,h,v,p: 50% 17% 18% 16%
x264 [info]: Weighted P-Frames: Y:13.6% UV:8.1%
x264 [info]: ref P L0: 34.9% 12.9% 18.0% 6.2% 6.2% 3.9% 4.3% 2.0% 2.3% 1.6% 1.9% 1.4% 1.6% 1.2% 1.5% 0.2%
x264 [info]: ref B L0: 74.8% 9.3% 4.2% 2.6% 1.8% 1.7% 1.3% 0.9% 0.7% 0.8% 0.6% 0.6% 0.4% 0.3%
x264 [info]: ref B L1: 95.2% 4.8%
x264 [info]: SSIM Mean Y:0.9555093 (13.517db)
x264 [info]: PSNR Mean Y:39.723 U:43.713 V:44.189 Avg:40.692 Global:40.374 kb/s:4499.58

encoded 147337 frames, 3.81 fps, 4499.58 kb/sСравнение с исходником
Перевод: Профессиональный (многоголосый, закадровый) + Оригинал
Год выхода: 1959
Формат: MKV
Жанр: мелодрама, комедия
Видео: 1008x428 (2.35:1), 23.976 fps, ~4499 kbps, 0.435 bit/pixel
Аудио кодек: AC3

Если у вас возникли проблемы с закачкой Телефон пополам / Интимный разговор / Pillow Talk (1959) BDRip-AVC, перейдите по ссылке - там вы найдете решение своей проблемы.

Категория: Зарубежные фильмы

 

Скачать Телефон пополам / Интимный разговор / Pillow Talk (1959) BDRip-AVC бесплатно без регистрации

 

Информация
Посетители, находящиеся в группе Гости, не могут оставлять комментарии к данной публикации.
 
 
Скачать Телефон пополам / Интимный разговор / Pillow Talk (1959) BDRip-AVC бесплатно без регистрацииCopyright © 2019 .